<?xml version="1.0" standalone="no"?>
<!DOCTYPE svg PUBLIC "-//W3C//DTD SVG 1.1//EN" "http://www.w3.org/Graphics/SVG/1.1/DTD/svg11.dtd">
<svg xmlns="http://www.w3.org/2000/svg">
<defs >
<font id="FiraSans" horiz-adv-x="520" ><font-face
    font-family="Fira Sans Light"
    units-per-em="1000"
    panose-1="2 11 4 3 5 0 0 2 0 4"
    ascent="1050"
    descent="-500"
    alphabetic="0" />
<glyph unicode=" " glyph-name="space" horiz-adv-x="279" />
<glyph unicode="!" glyph-name="exclam" horiz-adv-x="240" d="M93 218L88 685H150L146 218H93ZM141 84T154 71T168 37Q168 17 155 3T120 -11Q100 -11 86 3T72 37Q72 57 86 70T120 84Q141 84 154 71Z" />
<glyph unicode="&quot;" glyph-name="quotedbl" horiz-adv-x="362" d="M291 685L282 434H238L229 685H291ZM133 685L124 434H80L71 685H133Z" />
<glyph unicode="#" glyph-name="numbersign" horiz-adv-x="503" d="M380 227H451V180H374L350 0H296L320 180H141L117 0H63L87 180H15V227H93L123 452H52V499H129L151 665H205L183 499H362L384 665H438L416 499H488V452H410L380 227ZM177 452L147 227H326L356 452H177Z" />
<glyph unicode="$" glyph-name="dollar" horiz-adv-x="526" d="M472 105T423 53T289 -9V-151H238V-11Q121 -7 39 72L74 109Q110 75 152 57T250 39Q322 39 367 76T412 180Q412 220 398 246T350 291T254 329Q152 361 109 401T65 511Q65 578 112 623T238 674V819H289V674Q339
670 377 652T451 601L416 564Q381 597 345 611T261 625Q200 625 163 595T125 513Q125 478 139 456T185 415T279 379Q345 358 386 335T449 275T472 182Q472 105 423 53Z" />
<glyph unicode="%" glyph-name="percent" horiz-adv-x="793" d="M189 -24L147 4L610 703L653 676L189 -24ZM270 676T311 632T352 514Q352 440 312 396T203 351Q136 351 95 395T53 513Q53 587 94 631T203 676Q270 676 311 632ZM153 634T130 600T107 513Q107 461
130 427T203 393Q253 393 275 427T298 514Q298 566 276 600T203 634Q153 634 130 600ZM657 314T698 270T740 153Q740 78 699 34T590 -11Q524 -11 483 33T441 151Q441 226 481 270T590 314Q657 314 698 270ZM541 272T518 238T495 151Q495 99 518 65T590 31Q640 31
663 65T686 153Q686 204 663 238T590 272Q541 272 518 238Z" />
<glyph unicode="&amp;" glyph-name="ampersand" horiz-adv-x="743" d="M374 696T420 655T467 548Q467 491 430 449T314 364L519 172Q563 262 585 362L640 346Q608 226 555 137L679 23L636 -11L524 94Q481 43 428 16T300 -11Q241 -11 193 11T118 75T90 171Q90 235
126 281T234 370Q179 422 156 458T133 544Q133 610 179 653T301 696Q374 696 420 655ZM251 651T221 621T191 545Q191 507 209 477T280 396Q347 433 378 467T410 546Q410 595 380 623T301 651Q251 651 221 621ZM209 302T180 263T150 173Q150 112 193 75T305 37Q365
37 408 59T488 127L269 338Q209 302 180 263Z" />
<glyph unicode="&apos;" glyph-name="quotesingle" horiz-adv-x="204" d="M133 685L124 434H80L71 685H133Z" />
<glyph unicode="(" glyph-name="parenleft" horiz-adv-x="324" d="M217 734T185 673T134 532T114 350Q114 247 133 168T185 28T270 -113L233 -137Q171 -50 136 12T77 157T54 350Q54 460 77 543T135 688T233 837L270 813Q217 734 185 673Z" />
<glyph unicode=")" glyph-name="parenright" horiz-adv-x="324" d="M153 750T188 688T247 543T270 350Q270 240 247 157T189 12T91 -137L54 -113Q107 -34 139 27T190 168T210 350Q210 453 191 532T139 672T54 813L91 837Q153 750 188 688Z" />
<glyph unicode="*" glyph-name="asterisk" horiz-adv-x="436" d="M349 420L303 386L218 518L133 386L87 419L186 541L34 582L51 634L197 577L189 736H246L239 577L384 634L402 582L250 542L349 420Z" />
<glyph unicode="+" glyph-name="plus" horiz-adv-x="493" d="M424 356V306H274V154H219V306H69V356H219V508H274V356H424Z" />
<glyph unicode="," glyph-name="comma" horiz-adv-x="207" d="M124 84T137 71T151 37Q151 15 136 -18L80 -151H38L78 -4Q67 2 61 13T55 37Q55 57 69 70T103 84Q124 84 137 71Z" />
<glyph unicode="-" glyph-name="hyphen" horiz-adv-x="401" d="M333 338V288H68V338H333Z" />
<glyph unicode="." glyph-name="period" horiz-adv-x="207" d="M124 84T137 71T151 37Q151 16 138 3T103 -11Q83 -11 69 3T55 37Q55 57 69 70T103 84Q124 84 137 71Z" />
<glyph unicode="/" glyph-name="slash" d="M169 -100L119 -87L351 803L401 791L169 -100Z" />
<glyph unicode="0" glyph-name="zero" horiz-adv-x="550" d="M378 676T431 589T484 332Q484 164 431 77T275 -11Q172 -11 119 76T66 333Q66 502 119 589T275 676Q378 676 431 589ZM126 628T126 333Q126 37 275 37Q348 37 385 109T423 332Q423 483 386 555T275
628Q126 628 126 333Z" />
<glyph unicode="1" glyph-name="one" horiz-adv-x="413" d="M234 0V601L70 499L43 542L242 665H292V0H234Z" />
<glyph unicode="2" glyph-name="two" horiz-adv-x="479" d="M309 676T358 627T408 501Q408 436 381 379T297 254T111 51H426L418 0H43V49Q180 195 239 265T323 387T348 498Q348 557 314 592T222 627Q176 627 141 608T74 551L33 581Q73 630 119 653T225 676Q309
676 358 627Z" />
<glyph unicode="3" glyph-name="three" horiz-adv-x="486" d="M277 676T318 654T382 595T404 510Q404 445 368 405T272 354Q338 351 380 308T423 188Q423 130 397 85T323 15T211 -11Q95 -11 20 75L57 108Q91 71 127 55T209 38Q281 38 322 79T363 187Q363 327 213
327H169L177 374H209Q266 374 306 408T346 507Q346 562 311 594T218 627Q176 627 141 613T70 565L39 601Q79 639 123 657T221 676Q277 676 318 654Z" />
<glyph unicode="4" glyph-name="four" horiz-adv-x="518" d="M393 175V0H336V175H45V218L248 676L297 656L107 223H337L343 418H393V223H483V175H393Z" />
<glyph unicode="5" glyph-name="five" horiz-adv-x="487" d="M135 617V390Q190 421 249 421Q335 421 385 366T436 214Q436 149 410 98T335 18T222 -11Q111 -11 34 69L71 104Q102 70 138 54T222 38Q293 38 334 85T375 215Q375 295 338 334T236 374Q204 374 180
367T125 342H79V665H414L405 617H135Z" />
<glyph unicode="6" glyph-name="six" horiz-adv-x="524" d="M373 433T423 380T473 224Q473 153 448 100T378 18T277 -11Q167 -11 117 73T66 300Q66 415 95 500T178 630T306 676Q373 676 430 637L405 597Q357 628 305 628Q223 628 176 547T125 334Q192 433 296
433Q373 433 423 380ZM343 37T378 87T414 222Q414 305 380 345T288 385Q238 385 197 356T125 275Q128 159 164 98T277 37Q343 37 378 87Z" />
<glyph unicode="7" glyph-name="seven" horiz-adv-x="437" d="M139 -8L85 10L341 616H30V665H401V620L139 -8Z" />
<glyph unicode="8" glyph-name="eight" horiz-adv-x="538" d="M413 321T449 280T485 173Q485 118 458 77T381 12T267 -11Q203 -11 155 12T80 76T53 172Q53 301 196 356Q136 383 109 419T82 510Q82 561 108 599T177 656T269 676Q318 676 361 657T430 601T457 511Q457
459 428 422T336 353Q413 321 449 280ZM140 461T167 433T263 380L294 369Q349 398 374 430T399 509Q399 566 364 598T269 630Q212 630 176 598T140 509Q140 461 167 433ZM339 38T381 73T424 173Q424 213 409 239T363 285T276 326L242 339Q175 313 145 273T114 172Q114
108 156 73T268 38Q339 38 381 73Z" />
<glyph unicode="9" glyph-name="nine" horiz-adv-x="518" d="M356 676T406 606T457 408Q457 279 420 197T312 66T123 -19L108 26Q246 68 318 140T397 341Q368 297 327 273T234 248Q182 248 141 273T77 346T53 458Q53 524 79 573T152 649T255 676Q356 676 406 606ZM292
296T329 321T398 396Q399 515 365 571T257 628Q190 628 152 584T113 457Q113 380 148 338T244 296Q292 296 329 321Z" />
<glyph unicode=":" glyph-name="colon" horiz-adv-x="207" d="M124 84T137 71T151 37Q151 16 138 3T103 -11Q83 -11 69 3T55 37Q55 57 69 70T103 84Q124 84 137 71ZM124 474T137 461T151 427Q151 406 138 393T103 379Q83 379 69 393T55 427Q55 447 69 460T103
474Q124 474 137 461Z" />
<glyph unicode=";" glyph-name="semicolon" horiz-adv-x="207" d="M124 84T137 71T151 37Q151 15 136 -18L80 -151H38L78 -4Q67 2 61 13T55 37Q55 57 69 70T103 84Q124 84 137 71ZM124 474T137 461T151 427Q151 406 138 393T103 379Q83 379 69 393T55 427Q55 447
69 460T103 474Q124 474 137 461Z" />
<glyph unicode="&lt;" glyph-name="less" horiz-adv-x="497" d="M115 333L433 183L412 135L64 306V360L412 529L433 480L115 333Z" />
<glyph unicode="=" glyph-name="equal" horiz-adv-x="493" d="M424 443V392H69V443H424ZM424 525V474H69V525H424Z" />
<glyph unicode="&gt;" glyph-name="greater" horiz-adv-x="497" d="M433 306L85 135L64 183L381 333L64 480L85 529L433 360V306Z" />
<glyph unicode="?" glyph-name="question" horiz-adv-x="447" d="M288 696T327 676T386 623T407 550Q407 514 394 489T363 446T313 407Q283 386 266 370T236 330T224 273V218H167V277Q167 319 181 348T215 396T267 437Q307 464 326 487T346 547Q346 593 315 619T231
646Q186 646 151 629T81 572L41 604Q82 651 128 673T234 696Q288 696 327 676ZM219 84T232 71T246 37Q246 17 233 3T198 -11Q177 -11 164 3T150 37Q150 57 163 70T198 84Q219 84 232 71Z" />
<glyph unicode="@" glyph-name="at" horiz-adv-x="1020" d="M656 696T748 643T888 502T935 308Q935 164 885 88T754 12Q704 12 673 43T632 121Q610 71 574 43T484 14Q436 14 398 40T338 115T316 232Q316 315 343 371T418 456T525 484Q600 484 670 448V190Q670
59 753 59Q809 59 842 117T876 306Q876 404 836 481T716 602T526 646Q413 646 326 592T192 446T144 242Q144 122 190 32T323 -107T525 -156Q622 -156 714 -122L730 -169Q678 -187 632 -196T524 -205Q396 -205 297 -151T141 4T85 242Q85 367 140 471T296 635T526
696Q656 696 748 643ZM538 60T570 92T616 166V419Q574 439 527 439Q454 439 414 385T374 232Q374 148 405 104T490 60Q538 60 570 92Z" />
<glyph unicode="A" glyph-name="A" horiz-adv-x="565" d="M137 187L77 0H16L245 685H320L548 0H485L425 187H137ZM282 636L153 238H409L282 636Z" />
<glyph unicode="B" glyph-name="B" horiz-adv-x="598" d="M456 355T500 314T544 190Q544 94 479 47T298 0H111V685H264Q383 685 447 642T512 514Q512 451 478 412T386 363Q456 355 500 314ZM171 384H309Q373 384 412 417T451 510Q451 577 406 606T270 635H171V384ZM482
50T482 190Q482 264 437 300T316 336H171V50H298Q482 50 482 190Z" />
<glyph unicode="C" glyph-name="C" horiz-adv-x="550" d="M400 696T439 681T519 633L487 593Q452 621 420 633T347 645Q250 645 190 571T129 343Q129 243 157 175T233 75T344 42Q392 42 425 56T495 100L527 60Q454 -11 342 -11Q262 -11 200 30T102 150T66 343Q66
456 103 535T202 655T343 696Q400 696 439 681Z" />
<glyph unicode="D" glyph-name="D" horiz-adv-x="632" d="M389 685T477 613T566 348Q566 155 477 78T258 0H111V685H247Q389 685 477 613ZM171 50H262Q503 50 503 348Q503 466 468 529T380 613T255 635H171V50Z" />
<glyph unicode="E" glyph-name="E" horiz-adv-x="512" d="M171 635V380H414V330H171V50H466V0H111V685H459L452 635H171Z" />
<glyph unicode="F" glyph-name="F" horiz-adv-x="481" d="M171 635V368H408V318H171V0H111V685H453L446 635H171Z" />
<glyph unicode="G" glyph-name="G" horiz-adv-x="618" d="M409 696T452 680T540 628L504 591Q467 619 432 632T351 645Q293 645 243 614T161 516T129 345Q129 192 187 116T349 40Q429 40 493 76V319H359L352 369H552V45Q456 -11 346 -11Q261 -11 198 29T101 149T66
345Q66 457 106 536T211 656T350 696Q409 696 452 680Z" />
<glyph unicode="H" glyph-name="H" horiz-adv-x="670" d="M171 335V0H111V685H171V386H499V685H559V0H499V335H171Z" />
<glyph unicode="I" glyph-name="I" horiz-adv-x="282" d="M111 0V685H171V0H111Z" />
<glyph unicode="J" glyph-name="J" horiz-adv-x="291" d="M185 31T170 -7T121 -71T29 -119L13 -75Q59 -55 83 -34T116 17T125 95V685H185V92Q185 31 170 -7Z" />
<glyph unicode="K" glyph-name="K" horiz-adv-x="547" d="M111 0V685H171V0H111ZM547 0H474L175 367L461 685H530L246 370L547 0Z" />
<glyph unicode="L" glyph-name="L" horiz-adv-x="474" d="M457 54L449 0H111V685H171V54H457Z" />
<glyph unicode="M" glyph-name="M" horiz-adv-x="778" d="M643 0L612 328Q593 520 586 627L414 81H357L179 627Q176 568 156 330L126 0H69L134 685H217L387 151L551 685H635L701 0H643Z" />
<glyph unicode="N" glyph-name="N" horiz-adv-x="673" d="M483 0L160 619Q168 494 168 383V0H111V685H188L513 66Q505 182 505 269V685H562V0H483Z" />
<glyph unicode="O" glyph-name="O" horiz-adv-x="691" d="M429 696T492 656T590 535T625 342Q625 231 591 152T493 31T345 -11Q262 -11 199 30T101 150T66 341Q66 452 101 532T199 654T345 696Q429 696 492 656ZM245 645T187 569T129 341Q129 192 187 116T345
40Q448 40 505 115T562 342Q562 494 505 569T345 645Q245 645 187 569Z" />
<glyph unicode="P" glyph-name="P" horiz-adv-x="570" d="M394 685T459 635T525 480Q525 370 457 319T269 267H171V0H111V685H272Q394 685 459 635ZM362 316T412 353T462 479Q462 563 414 599T271 636H171V316H269Q362 316 412 353Z" />
<glyph unicode="Q" glyph-name="Q" horiz-adv-x="681" d="M555 -45T497 -27T345 -9Q262 -9 199 31T101 150T66 341Q66 452 101 532T199 654T345 696Q429 696 492 656T590 535T625 342Q625 87 452 24Q509 23 559 7T649 -42L609 -93Q555 -45 497 -27ZM129 192T187
116T345 40Q448 40 505 115T562 342Q562 494 505 569T345 645Q245 645 187 569T129 341Q129 192 187 116Z" />
<glyph unicode="R" glyph-name="R" horiz-adv-x="590" d="M171 307V0H111V685H277Q521 685 521 499Q521 425 482 381T368 318L556 0H484L308 307H171ZM457 356T457 499Q457 569 414 602T275 636H171V356H285Q457 356 457 499Z" />
<glyph unicode="S" glyph-name="S" horiz-adv-x="539" d="M330 696T375 678T464 620L428 581Q390 615 353 630T269 645Q205 645 166 614T127 529Q127 493 141 470T190 428T287 390Q355 369 397 345T462 283T485 187Q485 129 457 84T378 14T258 -11Q130 -11 39
75L75 114Q114 78 157 59T257 40Q331 40 377 79T424 185Q424 227 409 254T359 300T261 340Q156 372 111 414T66 528Q66 576 91 614T162 674T267 696Q330 696 375 678Z" />
<glyph unicode="T" glyph-name="T" horiz-adv-x="495" d="M277 632V0H218V632H15V685H485L478 632H277Z" />
<glyph unicode="U" glyph-name="U" horiz-adv-x="652" d="M551 112T493 51T326 -11Q215 -11 158 50T101 214V685H161V219Q161 133 201 87T326 41Q410 41 450 87T490 219V685H551V214Q551 112 493 51Z" />
<glyph unicode="V" glyph-name="V" horiz-adv-x="546" d="M240 0L16 685H81L274 62L468 685H530L307 0H240Z" />
<glyph unicode="W" glyph-name="W" horiz-adv-x="810" d="M554 0L404 618L254 0H181L30 685H91L221 55L371 685H438L591 55L722 685H779L629 0H554Z" />
<glyph unicode="X" glyph-name="X" horiz-adv-x="512" d="M436 0L254 330L75 0H10L219 368L31 685H99L255 407L411 685H476L290 371L504 0H436Z" />
<glyph unicode="Y" glyph-name="Y" horiz-adv-x="523" d="M292 0H232V267L13 685H80L264 320L445 685H509L292 268V0Z" />
<glyph unicode="Z" glyph-name="Z" horiz-adv-x="516" d="M104 53H462L454 0H35V50L402 633H73V685H468V636L104 53Z" />
<glyph unicode="[" glyph-name="bracketleft" horiz-adv-x="317" d="M138 759V-65H251V-112H84V807H251V759H138Z" />
<glyph unicode="\" glyph-name="backslash" d="M350 -100L119 791L169 803L401 -87L350 -100Z" />
<glyph unicode="]" glyph-name="bracketright" horiz-adv-x="317" d="M66 -112V-65H179V759H66V807H233V-112H66Z" />
<glyph unicode="^" glyph-name="asciicircum" horiz-adv-x="531" d="M409 527L265 775L122 527H56L241 832H290L474 527H409Z" />
<glyph unicode="_" glyph-name="underscore" d="M492 -71V-122H29V-71H492Z" />
<glyph unicode="`" glyph-name="grave" horiz-adv-x="274" d="M226 645L30 730L56 782L244 679L226 645Z" />
<glyph unicode="a" glyph-name="a" horiz-adv-x="536" d="M431 75T441 57T475 30L462 -11Q426 -3 407 17T381 76Q324 -11 218 -11Q143 -11 100 31T56 145Q56 227 113 271T273 315H373V365Q373 428 345 456T252 485Q192 485 110 455L95 499Q183 534 260 534Q431
534 431 368V116Q431 75 441 57ZM324 36T373 130V272H282Q202 272 160 241T118 148Q118 94 147 65T228 36Q324 36 373 130Z" />
<glyph unicode="b" glyph-name="b" horiz-adv-x="581" d="M412 534T462 464T512 264Q512 137 460 63T313 -11Q266 -11 228 10T162 66L157 0H106V736L164 743V450Q225 534 321 534Q412 534 462 464ZM373 37T411 94T450 264Q450 486 309 486Q263 486 229 463T164
396V120Q189 81 224 59T302 37Q373 37 411 94Z" />
<glyph unicode="c" glyph-name="c" horiz-adv-x="469" d="M330 534T365 522T433 481L404 442Q378 464 351 474T288 484Q214 484 170 427T126 259Q126 150 169 95T287 40Q322 40 350 51T407 85L436 45Q370 -11 286 -11Q219 -11 169 21T92 113T64 258Q64 341 91
403T169 500T285 534Q330 534 365 522Z" />
<glyph unicode="d" glyph-name="d" horiz-adv-x="585" d="M479 0H429L422 80Q398 38 359 14T265 -11Q174 -11 122 61T69 259Q69 340 93 402T164 499T274 534Q363 534 421 463V743L479 736V0ZM324 37T358 61T421 134V407Q365 486 284 486Q214 486 173 428T131 262Q131
154 168 96T274 37Q324 37 358 61Z" />
<glyph unicode="e" glyph-name="e" horiz-adv-x="538" d="M477 259T475 239H126Q131 137 174 88T289 38Q330 38 361 50T430 90L457 53Q418 21 377 5T286 -11Q182 -11 123 60T64 257Q64 340 89 402T162 499T273 534Q373 534 425 467T477 281Q477 259 475 239ZM420
299Q420 387 384 436T275 486Q211 486 171 436T125 284H420V299Z" />
<glyph unicode="f" glyph-name="f" horiz-adv-x="321" d="M215 695T193 674T170 607V523H308L300 476H170V0H112V476H21V523H112V609Q112 671 150 707T257 743Q318 743 379 715L359 672Q307 695 260 695Q215 695 193 674Z" />
<glyph unicode="g" glyph-name="g" horiz-adv-x="503" d="M447 499T350 497Q439 455 439 355Q439 278 388 231T250 183Q211 183 182 193Q163 182 153 167T142 133Q142 79 225 79H310Q387 79 432 42T478 -55Q478 -127 421 -166T251 -205Q134 -205 84 -170T33 -55H87Q88
-93 103 -115T153 -147T251 -157Q339 -157 379 -132T419 -58Q419 -16 388 6T301 29H216Q154 29 121 55T87 121Q87 147 102 170T144 210Q99 233 78 269T56 357Q56 436 109 485T248 534Q343 533 386 541T477 568L495 512Q447 499 350 497ZM183 489T150 453T116 357Q116
295 151 260T248 225Q312 225 346 259T380 356Q380 419 347 454T248 489Q183 489 150 453Z" />
<glyph unicode="h" glyph-name="h" horiz-adv-x="584" d="M407 534T445 492T483 374V0H425V366Q425 487 326 487Q276 487 238 460T164 379V0H106V736L164 743V436Q234 534 337 534Q407 534 445 492Z" />
<glyph unicode="i" glyph-name="i" horiz-adv-x="270" d="M106 0V523H164V0H106ZM154 753T166 741T178 711Q178 693 166 681T134 669Q115 669 103 681T91 711Q91 729 103 741T134 753Q154 753 166 741Z" />
<glyph unicode="j" glyph-name="j" horiz-adv-x="270" d="M164 -49T149 -89T105 -154T23 -203L6 -161Q44 -142 64 -124T95 -73T106 17V523H164V19Q164 -49 149 -89ZM154 753T166 741T178 711Q178 693 166 681T134 669Q115 669 103 681T91 711Q91 729 103 741T134
753Q154 753 166 741Z" />
<glyph unicode="k" glyph-name="k" horiz-adv-x="488" d="M106 0V736L164 743V0H106ZM480 0H410L170 286L390 523H457L237 289L480 0Z" />
<glyph unicode="l" glyph-name="l" horiz-adv-x="284" d="M159 64T169 52T202 39Q222 39 237 46L253 3Q222 -11 191 -11Q148 -11 125 14T101 90V736L159 743V90Q159 64 169 52Z" />
<glyph unicode="m" glyph-name="m" horiz-adv-x="853" d="M679 534T715 491T752 374V0H694V366Q694 428 671 457T605 487Q561 487 526 459T458 379V0H400V366Q400 428 377 457T311 487Q266 487 231 459T164 379V0H106V523H156L161 435Q192 481 232 507T322 534Q372
534 405 507T451 430Q520 534 616 534Q679 534 715 491Z" />
<glyph unicode="n" glyph-name="n" horiz-adv-x="584" d="M408 534T445 492T483 374V0H425V366Q425 429 400 458T326 487Q276 487 238 460T164 379V0H106V523H156L161 434Q232 534 337 534Q408 534 445 492Z" />
<glyph unicode="o" glyph-name="o" horiz-adv-x="571" d="M390 534T448 463T507 263Q507 136 448 63T285 -11Q181 -11 123 61T64 261Q64 344 91 406T168 501T286 534Q390 534 448 463ZM210 485T168 428T126 261Q126 152 167 95T285 38Q361 38 403 95T446 263Q446
372 405 428T286 485Q210 485 168 428Z" />
<glyph unicode="p" glyph-name="p" horiz-adv-x="581" d="M417 534T464 464T512 264Q512 138 461 64T313 -11Q266 -11 228 8T164 61V-197L106 -205V523H156L161 447Q190 488 231 511T322 534Q417 534 464 464ZM374 38T412 95T450 264Q450 486 311 486Q264 486
230 462T164 396V118Q189 80 224 59T302 38Q374 38 412 95Z" />
<glyph unicode="q" glyph-name="q" horiz-adv-x="580" d="M474 -205L416 -197V77Q392 37 353 13T260 -11Q169 -11 117 61T64 259Q64 340 89 402T160 499T270 534Q360 534 420 460L424 523H474V-205ZM320 37T354 61T416 133V407Q362 486 280 486Q209 486 168 428T126
262Q126 154 164 96T270 37Q320 37 354 61Z" />
<glyph unicode="r" glyph-name="r" horiz-adv-x="373" d="M340 534T361 528L350 473Q328 479 304 479Q250 479 218 440T164 318V0H106V523H156L161 406Q182 471 218 502T309 534Q340 534 361 528Z" />
<glyph unicode="s" glyph-name="s" horiz-adv-x="464" d="M283 534T323 520T401 476L373 437Q338 463 307 474T236 486Q184 486 152 462T120 398Q120 360 147 339T247 299Q336 276 375 241T415 141Q415 71 361 30T226 -11Q166 -11 121 6T39 56L72 94Q106 66 142
52T225 38Q283 38 318 64T354 137Q354 170 342 190T301 224T216 254Q133 276 97 309T60 398Q60 437 83 468T145 516T234 534Q283 534 323 520Z" />
<glyph unicode="t" glyph-name="t" horiz-adv-x="341" d="M294 -11T234 -11Q174 -11 140 24T106 127V476H18V523H106V648L164 655V523H299L292 476H164V130Q164 84 183 62T241 39Q282 39 321 63L344 22Q294 -11 234 -11Z" />
<glyph unicode="u" glyph-name="u" horiz-adv-x="579" d="M423 0L420 93Q358 -11 249 -11Q178 -11 140 30T101 149V523H159V155Q159 94 184 66T262 37Q353 37 415 144V523H473V0H423Z" />
<glyph unicode="v" glyph-name="v" horiz-adv-x="470" d="M202 0L15 523H79L238 51L393 523H455L274 0H202Z" />
<glyph unicode="w" glyph-name="w" horiz-adv-x="698" d="M467 0L351 469L233 0H156L25 523H85L197 45L319 523H385L505 44L616 523H673L545 0H467Z" />
<glyph unicode="x" glyph-name="x" horiz-adv-x="459" d="M378 0L227 243L77 0H10L194 278L34 523H102L230 314L359 523H425L264 280L448 0H378Z" />
<glyph unicode="y" glyph-name="y" horiz-adv-x="468" d="M252 -63T227 -102T162 -166T59 -204L53 -159Q105 -146 134 -127T181 -80T217 0H197L15 523H78L236 43L391 523H452L273 -2Q252 -63 227 -102Z" />
<glyph unicode="z" glyph-name="z" horiz-adv-x="422" d="M96 50H386L380 0H28V45L320 473H52V523H388V478L96 50Z" />
<glyph unicode="{" glyph-name="braceleft" horiz-adv-x="326" d="M215 784T195 766T174 705V451Q174 402 157 381T99 349Q139 338 156 318T174 247V-6Q174 -48 194 -66T262 -85V-129Q188 -129 154 -100T120 -4V251Q120 290 102 307T44 324V374Q83 374 101 391T120
448V703Q120 769 154 798T262 828V784Q215 784 195 766Z" />
<glyph unicode="|" glyph-name="bar" horiz-adv-x="407" d="M176 -100V804H230V-100H176Z" />
<glyph unicode="}" glyph-name="braceright" horiz-adv-x="326" d="M137 828T171 799T206 703V448Q206 408 224 391T282 374V324Q243 324 225 307T206 251V-4Q206 -70 172 -99T64 -129V-85Q111 -85 131 -67T152 -6V247Q152 297 169 317T227 349Q187 359 170 380T152
451V705Q152 747 132 765T64 784V828Q137 828 171 799Z" />
<glyph unicode="~" glyph-name="asciitilde" horiz-adv-x="472" d="M187 371T207 363T254 338Q274 326 288 320T315 313Q337 313 351 323T382 358L420 337Q399 303 375 284T312 264Q288 264 269 272T220 298Q198 310 185 316T159 322Q136 322 122 311T90 274L51
295Q73 331 98 351T162 371Q187 371 207 363Z" />
<glyph unicode="&#xa0;" glyph-name="nbspace" horiz-adv-x="280" />
<glyph unicode="&#xa1;" glyph-name="exclamdown" horiz-adv-x="240" d="M141 475T154 461T168 427Q168 407 155 394T120 380Q99 380 86 393T72 427Q72 447 85 461T120 475Q141 475 154 461ZM90 -197L95 249H147L152 -197H90Z" />
<glyph unicode="&#xa2;" glyph-name="cent" horiz-adv-x="469" d="M380 -3T311 -10V-150H260V-10Q169 0 117 70T64 258Q64 376 117 450T261 533V680H311V533Q378 527 433 481L404 442Q378 464 351 474T288 484Q214 484 170 427T126 259Q126 150 169 95T287 40Q322
40 350 51T407 85L436 45Q380 -3 311 -10Z" />
<glyph unicode="&#xa3;" glyph-name="sterling" horiz-adv-x="514" d="M192 122T177 96T125 51H453L446 0H51V48Q99 69 116 94T134 170V331H69V374H134V500Q134 577 179 626T306 676Q357 676 396 658T468 601L429 570Q403 600 375 613T308 627Q252 627 222 593T192
499V374H406V331H192V171Q192 122 177 96Z" />
<glyph unicode="&#xa4;" glyph-name="currency" horiz-adv-x="560" d="M473 269T432 215L511 138L475 102L395 180Q349 146 280 146Q214 146 165 182L85 102L49 138L129 217Q90 270 90 341Q90 412 129 463L49 543L85 579L165 499Q214 535 280 535Q347 535 396
500L475 579L511 543L433 465Q473 414 473 341Q473 269 432 215ZM347 193T381 233T416 341Q416 409 382 449T281 489Q216 489 181 449T145 341Q145 273 180 233T281 193Q347 193 381 233Z" />
<glyph unicode="&#xa5;" glyph-name="yen" horiz-adv-x="512" d="M422 338V295H286V192H422V149H286V0H227V149H91V192H227V295H91V338H208L13 665H79L258 352L436 665H499L305 338H422Z" />
<glyph unicode="&#xa6;" glyph-name="brokenbar" horiz-adv-x="407" d="M230 146H176V558H230V146Z" />
<glyph unicode="&#xa7;" glyph-name="section" horiz-adv-x="532" d="M399 148T412 125T426 68Q426 6 377 -31T251 -68Q162 -68 88 -21L113 20Q144 -1 177 -10T253 -20Q305 -20 336 3T367 63Q367 90 358 106T322 137T243 170Q185 190 152 208T101 251T84 317Q84
354 104 385T162 443Q134 461 122 484T109 540Q109 601 157 638T276 675Q325 675 361 663T434 626L410 587Q377 608 346 617T275 627Q227 627 197 603T167 543Q167 517 177 501T215 469T297 436Q380 407 414 375T449 287Q449 216 371 166Q399 148 412 125ZM141
295T151 277T186 245T260 214Q304 200 334 186Q392 227 392 282Q392 309 383 326T349 359T274 392Q215 414 199 422Q141 379 141 323Q141 295 151 277Z" />
<glyph unicode="&#xa8;" glyph-name="dieresis" horiz-adv-x="330" d="M87 742T98 731T110 702Q110 685 99 674T70 663Q53 663 42 674T30 702Q30 719 41 730T70 742Q87 742 98 731ZM276 742T287 731T299 702Q299 685 288 674T259 663Q242 663 231 674T219 702Q219
719 230 730T259 742Q276 742 287 731Z" />
<glyph unicode="&#xa9;" glyph-name="copyright" horiz-adv-x="810" d="M487 736T555 697T662 589T702 435Q702 350 663 282T555 174T405 134Q322 134 255 173T148 281T108 435Q108 519 147 588T255 696T405 736Q487 736 555 697ZM334 697T277 663T186 569T153
435Q153 360 185 301T276 207T406 173Q477 173 534 207T624 301T657 435Q657 510 625 569T535 663T406 697Q334 697 277 663ZM438 616T462 608T509 581L484 548Q467 561 450 567T409 573Q368 573 339 541T310 436Q310 368 337 333T409 298Q434 298 453 305T493
327L515 294Q467 254 407 254Q341 254 300 303T259 436Q259 494 280 535T334 596T407 616Q438 616 462 608Z" />
<glyph unicode="&#xaa;" glyph-name="ordfeminine" horiz-adv-x="500" d="M331 555Q331 600 310 619T238 639Q189 639 125 617L110 659Q182 685 244 685Q318 685 353 654T388 559V375Q388 345 396 333T421 313L409 274Q379 279 363 294T340 338Q295 274 210 274Q149
274 114 306T79 392Q79 454 126 487T255 521H331V555ZM292 319T331 384V481H263Q139 481 139 395Q139 358 160 339T221 319Q292 319 331 384ZM436 0H81V51H436V0Z" />
<glyph unicode="&#xab;" glyph-name="guillemotleft" horiz-adv-x="555" d="M134 288L271 80L235 56L71 268V307L235 520L271 495L134 288ZM347 288L484 80L448 56L284 268V307L448 520L484 495L347 288Z" />
<glyph unicode="&#xac;" glyph-name="logicalnot" horiz-adv-x="499" d="M375 168V296H69V347H430V168H375Z" />
<glyph unicode="&#xad;" glyph-name="softhyphen" horiz-adv-x="401" d="M333 338V288H68V338H333Z" />
<glyph unicode="&#xae;" glyph-name="registered" horiz-adv-x="639" d="M386 737T441 706T528 619T560 497Q560 431 528 376T441 289T319 257Q253 257 198 288T112 374T80 495Q80 561 112 616T198 704T319 737Q386 737 441 706ZM375 293T421 320T493 394T520
497Q520 554 494 600T422 673T319 700Q264 700 219 673T147 598T120 495Q120 438 146 392T218 320T319 293Q375 293 421 320ZM419 499T355 482L429 364H379L314 475H278V364H236V636H305Q419 636 419 555Q419 499 355 482ZM317 510Q376 510 376 555Q376 580 360
590T311 601H278V510H317Z" />
<glyph unicode="&#xaf;" glyph-name="overscore" horiz-adv-x="301" d="M30 723H271V676H30V723Z" />
<glyph unicode="&#xb0;" glyph-name="degree" horiz-adv-x="521" d="M180 395T146 413T90 465T69 546Q69 591 90 625T145 677T219 696Q260 696 294 678T349 626T370 545Q370 500 350 466T295 414T219 395Q180 395 146 413ZM263 439T290 467T318 545Q318 594 291
623T219 652Q177 652 149 624T120 546Q120 497 148 468T219 439Q263 439 290 467Z" />
<glyph unicode="&#xb1;" glyph-name="plusminus" horiz-adv-x="493" d="M424 51V0H69V51H424ZM424 366V316H274V164H219V316H69V366H219V518H274V366H424Z" />
<glyph unicode="&#xb2;" glyph-name="twosuperior" horiz-adv-x="400" d="M254 742T288 710T322 629Q322 591 305 558T251 483T135 365H334L327 322H75V363Q161 449 199 491T253 563T269 625Q269 660 249 679T193 699Q164 699 143 688T101 654L66 680Q93 712 125
727T197 742Q254 742 288 710Z" />
<glyph unicode="&#xb3;" glyph-name="threesuperior" horiz-adv-x="400" d="M257 743T291 714T325 639Q325 600 302 575T239 542Q281 540 308 513T336 439Q336 384 297 349T192 314Q114 314 63 370L94 398Q135 356 189 356Q234 356 258 379T283 440Q283 520 192
520H162L169 559H189Q224 559 248 578T273 634Q273 666 252 684T196 702Q169 702 147 693T101 664L74 695Q102 719 132 731T199 743Q257 743 291 714Z" />
<glyph unicode="&#xb4;" glyph-name="acute" horiz-adv-x="275" d="M49 645L30 679L218 782L244 730L49 645Z" />
<glyph unicode="&#xb5;" glyph-name="uni00B5" horiz-adv-x="585" d="M434 21T429 44T420 102Q357 -11 262 -11Q223 -11 194 5T153 53Q164 -6 164 -80V-197L106 -203V523H164V150Q164 93 192 67T262 40Q355 40 414 157V523H472V177Q472 77 499 -2L446 -9Q434 21 429 44Z" />
<glyph unicode="&#xb6;" glyph-name="paragraph" horiz-adv-x="708" d="M557 -197L503 -206V636H375V-197L321 -206V294Q207 298 154 351T101 489Q101 582 162 633T333 684L557 685V-197Z" />
<glyph unicode="&#xb7;" glyph-name="middot" horiz-adv-x="207" d="M124 367T137 353T151 319Q151 299 138 285T103 271Q83 271 70 285T56 319Q56 339 69 353T103 367Q124 367 137 353Z" />
<glyph unicode="&#xb8;" glyph-name="cedilla" horiz-adv-x="245" d="M170 -68T192 -88T215 -140Q215 -181 185 -204T110 -227Q62 -227 30 -206L48 -170Q75 -185 109 -185Q133 -185 148 -174T164 -140Q164 -118 143 -107T75 -96L85 16H123V-64Q170 -68 192 -88Z" />
<glyph unicode="&#xb9;" glyph-name="onesuperior" horiz-adv-x="400" d="M207 322V681L104 621L81 657L214 736H258V322H207Z" />
<glyph unicode="&#xba;" glyph-name="ordmasculine" horiz-adv-x="500" d="M334 685T382 632T430 481Q430 385 382 330T248 274Q164 274 116 328T68 479Q68 574 116 629T249 685Q334 685 382 632ZM192 639T160 599T128 479Q128 401 159 361T249 320Q307 320 338
360T370 481Q370 560 339 599T250 639Q192 639 160 599ZM427 51V0H72V51H427Z" />
<glyph unicode="&#xbb;" glyph-name="guillemotright" horiz-adv-x="546" d="M271 268L107 56L71 80L209 288L71 495L107 520L271 307V268ZM474 268L310 56L274 80L412 288L274 495L310 520L474 307V268Z" />
<glyph unicode="&#xbc;" glyph-name="onequarter" horiz-adv-x="914" d="M208 272V631L105 571L81 607L215 685H258V272H208ZM274 -71L233 -51L641 747L681 728L274 -71ZM805 103V0H755V103H566V140L696 421L740 404L620 145H755L760 260H805V145H861V103H805Z" />
<glyph unicode="&#xbd;" glyph-name="onehalf" horiz-adv-x="914" d="M208 272V631L105 571L81 607L215 685H258V272H208ZM274 -71L233 -51L641 747L681 728L274 -71ZM768 420T802 388T836 307Q836 269 819 236T765 161T649 43H848L841 0H589V41Q675 127 713 169T767
241T783 303Q783 338 763 357T707 377Q678 377 657 366T615 332L580 358Q607 390 639 405T711 420Q768 420 802 388Z" />
<glyph unicode="&#xbe;" glyph-name="threequarters" horiz-adv-x="914" d="M256 693T290 664T325 589Q325 549 302 524T239 492Q282 489 309 463T337 389Q337 334 298 299T192 264Q114 264 63 320L95 348Q134 306 189 306Q235 306 259 329T284 390Q284 469 193
469H163L169 509H190Q225 509 249 528T274 584Q274 616 253 634T196 652Q169 652 147 643T102 614L74 644Q102 669 132 681T199 693Q256 693 290 664ZM274 -71L233 -51L641 747L681 728L274 -71ZM805 103V0H755V103H566V140L696 421L740 404L620 145H755L760 260H805V145H861V103H805Z"
/>
<glyph unicode="&#xbf;" glyph-name="questiondown" horiz-adv-x="447" d="M229 380T216 393T202 427Q202 448 215 461T250 475Q270 475 283 461T297 427Q297 407 284 394T250 380Q229 380 216 393ZM160 -206T121 -186T62 -134T41 -64Q41 -27 54 -1T87 43T138
82Q181 112 202 137T223 204V249H280V200Q280 161 267 134T234 90T183 51Q142 23 122 0T102 -62Q102 -104 133 -130T216 -157Q260 -157 296 -139T366 -82L407 -114Q365 -161 319 -183T213 -206Q160 -206 121 -186Z" />
<glyph unicode="&#xc0;" glyph-name="Agrave" horiz-adv-x="565" d="M137 187L77 0H16L245 685H320L548 0H485L425 187H137ZM282 636L153 238H409L282 636ZM366 758L168 836L194 888L382 792L366 758Z" />
<glyph unicode="&#xc1;" glyph-name="Aacute" horiz-adv-x="565" d="M137 187L77 0H16L245 685H320L548 0H485L425 187H137ZM282 636L153 238H409L282 636ZM195 758L179 792L366 888L393 836L195 758Z" />
<glyph unicode="&#xc2;" glyph-name="Acircumflex" horiz-adv-x="565" d="M137 187L77 0H16L245 685H320L548 0H485L425 187H137ZM282 636L153 238H409L282 636ZM160 762L134 792L264 894H300L429 792L403 762L282 842L160 762Z" />
<glyph unicode="&#xc3;" glyph-name="Atilde" horiz-adv-x="565" d="M137 187L77 0H16L245 685H320L548 0H485L425 187H137ZM282 636L153 238H409L282 636ZM324 793T308 799T270 819Q254 829 245 833T224 838Q205 838 194 830T168 798L132 817Q170 884 225 884Q240
884 254 878T288 860Q291 858 302 852T323 843T342 839Q357 839 369 849T397 883L433 864Q398 793 345 793Q324 793 308 799Z" />
<glyph unicode="&#xc4;" glyph-name="Adieresis" horiz-adv-x="565" d="M137 187L77 0H16L245 685H320L548 0H485L425 187H137ZM282 636L153 238H409L282 636ZM204 868T215 857T227 828Q227 811 216 800T187 789Q170 789 159 800T147 828Q147 845 158 856T187
868Q204 868 215 857ZM394 868T405 857T416 828Q416 811 405 800T376 789Q359 789 348 800T336 828Q336 845 347 856T376 868Q394 868 405 857Z" />
<glyph unicode="&#xc5;" glyph-name="Aring" horiz-adv-x="565" d="M137 187L77 0H16L245 685H320L548 0H485L425 187H137ZM282 636L153 238H409L282 636ZM326 947T354 921T382 853Q382 812 354 786T283 759Q240 759 212 785T184 853Q184 894 212 920T283 947Q326
947 354 921ZM257 911T243 896T228 853Q228 825 242 810T283 795Q309 795 323 810T338 853Q338 881 324 896T283 911Q257 911 243 896Z" />
<glyph unicode="&#xc6;" glyph-name="AE" horiz-adv-x="784" d="M737 0H461L415 184H130L60 0H0L267 685H690L683 635H358L424 379H682V330H437L509 50H737V0ZM302 637L149 235H403L302 637Z" />
<glyph unicode="&#xc7;" glyph-name="Ccedilla" horiz-adv-x="550" d="M406 -68T428 -88T451 -140Q451 -180 421 -203T346 -227Q298 -227 266 -206L284 -170Q311 -185 344 -185Q369 -185 384 -174T399 -140Q399 -117 378 -107T310 -95L318 -10Q244 -4 187 38T98
158T66 343Q66 456 103 535T202 655T343 696Q400 696 439 681T519 633L487 593Q452 621 420 633T347 645Q250 645 190 571T129 343Q129 243 157 175T233 75T344 42Q392 42 425 56T495 100L527 60Q457 -6 359 -10V-64Q406 -68 428 -88Z" />
<glyph unicode="&#xc8;" glyph-name="Egrave" horiz-adv-x="512" d="M171 635V380H414V330H171V50H466V0H111V685H459L452 635H171ZM372 758L174 836L200 888L388 792L372 758Z" />
<glyph unicode="&#xc9;" glyph-name="Eacute" horiz-adv-x="512" d="M171 635V380H414V330H171V50H466V0H111V685H459L452 635H171ZM201 758L185 792L372 888L399 836L201 758Z" />
<glyph unicode="&#xca;" glyph-name="Ecircumflex" horiz-adv-x="512" d="M171 635V380H414V330H171V50H466V0H111V685H459L452 635H171ZM167 762L141 792L271 894H307L436 792L410 762L289 842L167 762Z" />
<glyph unicode="&#xcb;" glyph-name="Edieresis" horiz-adv-x="512" d="M171 635V380H414V330H171V50H466V0H111V685H459L452 635H171ZM211 868T222 857T234 828Q234 811 223 800T194 789Q177 789 166 800T154 828Q154 845 165 856T194 868Q211 868 222 857ZM401
868T412 857T423 828Q423 811 412 800T383 789Q366 789 355 800T343 828Q343 845 354 856T383 868Q401 868 412 857Z" />
<glyph unicode="&#xcc;" glyph-name="Igrave" horiz-adv-x="282" d="M111 0V685H171V0H111ZM480 758L282 836L308 888L496 792L480 758Z" />
<glyph unicode="&#xcd;" glyph-name="Iacute" horiz-adv-x="282" d="M111 0V685H171V0H111ZM53 758L37 792L224 888L251 836L53 758Z" />
<glyph unicode="&#xce;" glyph-name="Icircumflex" horiz-adv-x="282" d="M111 0V685H171V0H111ZM275 762L249 792L379 894H415L544 792L518 762L397 842L275 762Z" />
<glyph unicode="&#xcf;" glyph-name="Idieresis" horiz-adv-x="282" d="M111 0V685H171V0H111ZM319 868T330 857T342 828Q342 811 331 800T302 789Q285 789 274 800T262 828Q262 845 273 856T302 868Q319 868 330 857ZM509 868T520 857T531 828Q531 811 520 800T491
789Q474 789 463 800T451 828Q451 845 462 856T491 868Q509 868 520 857Z" />
<glyph unicode="&#xd0;" glyph-name="Eth" horiz-adv-x="635" d="M393 685T481 613T569 348Q569 155 480 78T261 0H114V330H23V376H114V685H250Q393 685 481 613ZM506 50T506 348Q506 466 471 529T383 613T258 635H174V376H349V330H174V50H265Q506 50 506 348Z" />
<glyph unicode="&#xd1;" glyph-name="Ntilde" horiz-adv-x="673" d="M483 0L160 619Q168 494 168 383V0H111V685H188L513 66Q505 182 505 269V685H562V0H483ZM387 793T371 799T333 819Q317 829 308 833T287 838Q268 838 257 830T231 798L195 817Q233 884 288 884Q303
884 317 878T351 860Q354 858 365 852T386 843T405 839Q420 839 432 849T460 883L496 864Q461 793 408 793Q387 793 371 799Z" />
<glyph unicode="&#xd2;" glyph-name="Ograve" horiz-adv-x="691" d="M429 696T492 656T590 535T625 342Q625 231 591 152T493 31T345 -11Q262 -11 199 30T101 150T66 341Q66 452 101 532T199 654T345 696Q429 696 492 656ZM245 645T187 569T129 341Q129 192 187
116T345 40Q448 40 505 115T562 342Q562 494 505 569T345 645Q245 645 187 569ZM422 758L224 836L250 888L438 792L422 758Z" />
<glyph unicode="&#xd3;" glyph-name="Oacute" horiz-adv-x="691" d="M429 696T492 656T590 535T625 342Q625 231 591 152T493 31T345 -11Q262 -11 199 30T101 150T66 341Q66 452 101 532T199 654T345 696Q429 696 492 656ZM245 645T187 569T129 341Q129 192 187
116T345 40Q448 40 505 115T562 342Q562 494 505 569T345 645Q245 645 187 569ZM252 758L236 792L423 888L450 836L252 758Z" />
<glyph unicode="&#xd4;" glyph-name="Ocircumflex" horiz-adv-x="691" d="M429 696T492 656T590 535T625 342Q625 231 591 152T493 31T345 -11Q262 -11 199 30T101 150T66 341Q66 452 101 532T199 654T345 696Q429 696 492 656ZM245 645T187 569T129 341Q129 192
187 116T345 40Q448 40 505 115T562 342Q562 494 505 569T345 645Q245 645 187 569ZM217 762L191 792L321 894H357L486 792L460 762L339 842L217 762Z" />
<glyph unicode="&#xd5;" glyph-name="Otilde" horiz-adv-x="691" d="M429 696T492 656T590 535T625 342Q625 231 591 152T493 31T345 -11Q262 -11 199 30T101 150T66 341Q66 452 101 532T199 654T345 696Q429 696 492 656ZM245 645T187 569T129 341Q129 192 187
116T345 40Q448 40 505 115T562 342Q562 494 505 569T345 645Q245 645 187 569ZM380 793T364 799T326 819Q310 829 301 833T280 838Q261 838 250 830T224 798L188 817Q226 884 281 884Q296 884 310 878T344 860Q347 858 358 852T379 843T398 839Q413 839 425 849T453
883L489 864Q454 793 401 793Q380 793 364 799Z" />
<glyph unicode="&#xd6;" glyph-name="Odieresis" horiz-adv-x="691" d="M429 696T492 656T590 535T625 342Q625 231 591 152T493 31T345 -11Q262 -11 199 30T101 150T66 341Q66 452 101 532T199 654T345 696Q429 696 492 656ZM245 645T187 569T129 341Q129 192
187 116T345 40Q448 40 505 115T562 342Q562 494 505 569T345 645Q245 645 187 569ZM261 868T272 857T284 828Q284 811 273 800T244 789Q227 789 216 800T204 828Q204 845 215 856T244 868Q261 868 272 857ZM451 868T462 857T473 828Q473 811 462 800T433 789Q416
789 405 800T393 828Q393 845 404 856T433 868Q451 868 462 857Z" />
<glyph unicode="&#xd7;" glyph-name="multiply" horiz-adv-x="493" d="M282 307L409 180L371 144L246 271L122 144L85 180L210 307L85 434L122 471L246 343L371 471L409 434L282 307Z" />
<glyph unicode="&#xd8;" glyph-name="Oslash" horiz-adv-x="691" d="M543 632T584 549T625 342Q625 231 591 152T493 31T345 -11Q308 -11 268 -1L235 -120L182 -105L220 18Q147 55 107 137T66 341Q66 452 101 532T199 654T345 696Q385 696 421 687L456 810L509
796L469 669Q543 632 584 549ZM129 235T158 167T241 66L410 636Q380 645 345 645Q245 645 187 569T129 341Q129 235 158 167ZM448 40T505 115T562 342Q562 558 448 621L279 50Q309 40 345 40Q448 40 505 115Z" />
<glyph unicode="&#xd9;" glyph-name="Ugrave" horiz-adv-x="652" d="M551 112T493 51T326 -11Q215 -11 158 50T101 214V685H161V219Q161 133 201 87T326 41Q410 41 450 87T490 219V685H551V214Q551 112 493 51ZM411 758L213 836L239 888L427 792L411 758Z" />
<glyph unicode="&#xda;" glyph-name="Uacute" horiz-adv-x="652" d="M551 112T493 51T326 -11Q215 -11 158 50T101 214V685H161V219Q161 133 201 87T326 41Q410 41 450 87T490 219V685H551V214Q551 112 493 51ZM240 758L224 792L411 888L438 836L240 758Z" />
<glyph unicode="&#xdb;" glyph-name="Ucircumflex" horiz-adv-x="652" d="M551 112T493 51T326 -11Q215 -11 158 50T101 214V685H161V219Q161 133 201 87T326 41Q410 41 450 87T490 219V685H551V214Q551 112 493 51ZM206 762L180 792L310 894H346L475 792L449
762L328 842L206 762Z" />
<glyph unicode="&#xdc;" glyph-name="Udieresis" horiz-adv-x="652" d="M551 112T493 51T326 -11Q215 -11 158 50T101 214V685H161V219Q161 133 201 87T326 41Q410 41 450 87T490 219V685H551V214Q551 112 493 51ZM249 868T260 857T272 828Q272 811 261 800T232
789Q215 789 204 800T192 828Q192 845 203 856T232 868Q249 868 260 857ZM439 868T450 857T461 828Q461 811 450 800T421 789Q404 789 393 800T381 828Q381 845 392 856T421 868Q439 868 450 857Z" />
<glyph unicode="&#xdd;" glyph-name="Yacute" horiz-adv-x="523" d="M292 0H232V267L13 685H80L264 320L445 685H509L292 268V0ZM173 758L157 792L344 888L371 836L173 758Z" />
<glyph unicode="&#xde;" glyph-name="Thorn" horiz-adv-x="570" d="M395 563T460 512T525 356Q525 242 457 189T269 136H171V0H111V685H171V563H272Q395 563 460 512ZM362 186T412 223T462 355Q462 440 414 476T271 513H171V186H269Q362 186 412 223Z" />
<glyph unicode="&#xdf;" glyph-name="germandbls" horiz-adv-x="582" d="M367 743T412 705T458 609Q458 568 440 543T389 492Q364 471 353 457T341 424Q342 400 359 383T412 341Q450 315 474 294T516 238T534 155Q534 81 488 35T371 -11Q317 -11 275 12L293 53Q325
38 367 38Q416 38 445 69T474 156Q474 194 460 221T426 267T371 308Q328 337 307 361T286 421Q286 450 299 467T342 510Q372 535 386 554T401 606Q401 648 371 672T293 696Q234 696 199 657T164 538V0H106V540Q106 637 157 690T294 743Q367 743 412 705Z" />
<glyph unicode="&#xe0;" glyph-name="agrave" horiz-adv-x="536" d="M431 75T441 57T475 30L462 -11Q426 -3 407 17T381 76Q324 -11 218 -11Q143 -11 100 31T56 145Q56 227 113 271T273 315H373V365Q373 428 345 456T252 485Q192 485 110 455L95 499Q183 534 260
534Q431 534 431 368V116Q431 75 441 57ZM324 36T373 130V272H282Q202 272 160 241T118 148Q118 94 147 65T228 36Q324 36 373 130ZM354 645L158 730L184 782L372 679L354 645Z" />
<glyph unicode="&#xe1;" glyph-name="aacute" horiz-adv-x="536" d="M431 75T441 57T475 30L462 -11Q426 -3 407 17T381 76Q324 -11 218 -11Q143 -11 100 31T56 145Q56 227 113 271T273 315H373V365Q373 428 345 456T252 485Q192 485 110 455L95 499Q183 534 260
534Q431 534 431 368V116Q431 75 441 57ZM324 36T373 130V272H282Q202 272 160 241T118 148Q118 94 147 65T228 36Q324 36 373 130ZM160 645L141 679L329 782L355 730L160 645Z" />
<glyph unicode="&#xe2;" glyph-name="acircumflex" horiz-adv-x="536" d="M431 75T441 57T475 30L462 -11Q426 -3 407 17T381 76Q324 -11 218 -11Q143 -11 100 31T56 145Q56 227 113 271T273 315H373V365Q373 428 345 456T252 485Q192 485 110 455L95 499Q183
534 260 534Q431 534 431 368V116Q431 75 441 57ZM324 36T373 130V272H282Q202 272 160 241T118 148Q118 94 147 65T228 36Q324 36 373 130ZM241 779H277L407 674L381 643L259 728L138 643L112 674L241 779Z" />
<glyph unicode="&#xe3;" glyph-name="atilde" horiz-adv-x="536" d="M431 75T441 57T475 30L462 -11Q426 -3 407 17T381 76Q324 -11 218 -11Q143 -11 100 31T56 145Q56 227 113 271T273 315H373V365Q373 428 345 456T252 485Q192 485 110 455L95 499Q183 534 260
534Q431 534 431 368V116Q431 75 441 57ZM324 36T373 130V272H282Q202 272 160 241T118 148Q118 94 147 65T228 36Q324 36 373 130ZM299 667T283 673T244 693Q230 703 220 707T199 712Q180 712 169 704T143 672L107 690Q144 758 199 758Q215 758 230 752T263 734Q266
732 277 726T298 717T317 713Q332 713 344 723T372 756L408 738Q391 702 368 684T320 666Q299 667 283 673Z" />
<glyph unicode="&#xe4;" glyph-name="adieresis" horiz-adv-x="536" d="M431 75T441 57T475 30L462 -11Q426 -3 407 17T381 76Q324 -11 218 -11Q143 -11 100 31T56 145Q56 227 113 271T273 315H373V365Q373 428 345 456T252 485Q192 485 110 455L95 499Q183 534
260 534Q431 534 431 368V116Q431 75 441 57ZM324 36T373 130V272H282Q202 272 160 241T118 148Q118 94 147 65T228 36Q324 36 373 130ZM180 742T191 731T203 702Q203 685 192 674T163 663Q146 663 135 674T123 702Q123 719 134 730T163 742Q180 742 191 731ZM369
742T380 731T392 702Q392 685 381 674T352 663Q335 663 324 674T312 702Q312 719 323 730T352 742Q369 742 380 731Z" />
<glyph unicode="&#xe5;" glyph-name="aring" horiz-adv-x="536" d="M431 75T441 57T475 30L462 -11Q426 -3 407 17T381 76Q324 -11 218 -11Q143 -11 100 31T56 145Q56 227 113 271T273 315H373V365Q373 428 345 456T252 485Q192 485 110 455L95 499Q183 534 260
534Q431 534 431 368V116Q431 75 441 57ZM324 36T373 130V272H282Q202 272 160 241T118 148Q118 94 147 65T228 36Q324 36 373 130ZM301 821T328 795T356 727Q356 686 329 660T258 633Q214 633 187 659T159 727Q159 768 186 794T258 821Q301 821 328 795ZM231 785T217
770T202 727Q202 699 216 684T258 669Q284 669 298 684T313 727Q313 754 299 769T258 785Q231 785 217 770Z" />
<glyph unicode="&#xe6;" glyph-name="ae" horiz-adv-x="849" d="M788 259T786 239H436Q442 137 485 88T599 38Q640 38 672 50T740 90L768 53Q729 21 688 5T596 -11Q533 -11 486 16T410 96Q370 39 325 14T220 -11Q144 -11 100 32T56 145Q56 226 114 270T275 315H375V365Q375
428 347 456T254 485Q194 485 112 455L96 499Q184 534 261 534Q327 534 366 509T421 433Q475 534 587 534Q684 534 736 467T788 281Q788 259 786 239ZM730 299Q730 387 694 436T587 486Q522 486 481 436T436 284H730V299ZM278 36T316 61T391 141Q375 190 375 256V258V272H283Q204
272 162 241T119 148Q119 94 148 65T229 36Q278 36 316 61Z" />
<glyph unicode="&#xe7;" glyph-name="ccedilla" horiz-adv-x="469" d="M345 -68T368 -88T391 -140Q391 -180 361 -203T285 -227Q238 -227 205 -206L224 -170Q249 -185 284 -185Q308 -185 323 -174T339 -140Q339 -117 318 -107T250 -95L258 -9Q168 1 116 71T64
258Q64 341 91 403T169 500T285 534Q330 534 365 522T433 481L404 442Q378 464 351 474T288 484Q214 484 170 427T126 259Q126 150 169 95T287 40Q322 40 350 51T407 85L436 45Q377 -7 299 -11V-64Q345 -68 368 -88Z" />
<glyph unicode="&#xe8;" glyph-name="egrave" horiz-adv-x="538" d="M477 259T475 239H126Q131 137 174 88T289 38Q330 38 361 50T430 90L457 53Q418 21 377 5T286 -11Q182 -11 123 60T64 257Q64 340 89 402T162 499T273 534Q373 534 425 467T477 281Q477 259
475 239ZM420 299Q420 387 384 436T275 486Q211 486 171 436T125 284H420V299ZM372 645L176 730L202 782L390 679L372 645Z" />
<glyph unicode="&#xe9;" glyph-name="eacute" horiz-adv-x="538" d="M477 259T475 239H126Q131 137 174 88T289 38Q330 38 361 50T430 90L457 53Q418 21 377 5T286 -11Q182 -11 123 60T64 257Q64 340 89 402T162 499T273 534Q373 534 425 467T477 281Q477 259
475 239ZM420 299Q420 387 384 436T275 486Q211 486 171 436T125 284H420V299ZM178 645L159 679L347 782L373 730L178 645Z" />
<glyph unicode="&#xea;" glyph-name="ecircumflex" horiz-adv-x="538" d="M477 259T475 239H126Q131 137 174 88T289 38Q330 38 361 50T430 90L457 53Q418 21 377 5T286 -11Q182 -11 123 60T64 257Q64 340 89 402T162 499T273 534Q373 534 425 467T477 281Q477
259 475 239ZM420 299Q420 387 384 436T275 486Q211 486 171 436T125 284H420V299ZM259 779H295L425 674L399 643L277 728L156 643L130 674L259 779Z" />
<glyph unicode="&#xeb;" glyph-name="edieresis" horiz-adv-x="538" d="M477 259T475 239H126Q131 137 174 88T289 38Q330 38 361 50T430 90L457 53Q418 21 377 5T286 -11Q182 -11 123 60T64 257Q64 340 89 402T162 499T273 534Q373 534 425 467T477 281Q477 259
475 239ZM420 299Q420 387 384 436T275 486Q211 486 171 436T125 284H420V299ZM198 742T209 731T221 702Q221 685 210 674T181 663Q164 663 153 674T141 702Q141 719 152 730T181 742Q198 742 209 731ZM387 742T398 731T410 702Q410 685 399 674T370 663Q353 663
342 674T330 702Q330 719 341 730T370 742Q387 742 398 731Z" />
<glyph unicode="&#xec;" glyph-name="igrave" horiz-adv-x="270" d="M106 0V523H164V0H106ZM231 645L35 730L61 782L249 679L231 645Z" />
<glyph unicode="&#xed;" glyph-name="iacute" horiz-adv-x="270" d="M106 0V523H164V0H106ZM293 645L274 679L462 782L488 730L293 645Z" />
<glyph unicode="&#xee;" glyph-name="icircumflex" horiz-adv-x="270" d="M106 0V523H164V0H106ZM375 779H411L541 674L515 643L393 728L272 643L246 674L375 779Z" />
<glyph unicode="&#xef;" glyph-name="idieresis" horiz-adv-x="270" d="M106 0V523H164V0H106ZM313 742T324 731T336 702Q336 685 325 674T296 663Q279 663 268 674T256 702Q256 719 267 730T296 742Q313 742 324 731ZM502 742T513 731T525 702Q525 685 514 674T485
663Q468 663 457 674T445 702Q445 719 456 730T485 742Q502 742 513 731Z" />
<glyph unicode="&#xf0;" glyph-name="eth" horiz-adv-x="561" d="M409 600T448 509T487 280Q487 141 429 65T273 -11Q178 -11 121 54T64 233Q64 295 86 348T153 435T259 468Q355 468 421 388Q411 463 379 522T288 627L212 552L170 571L250 653Q192 686 128 698L141
744Q218 729 286 689L355 762L390 731L324 664Q409 600 448 509ZM346 37T387 100T428 282Q428 302 426 330Q359 421 267 421Q197 421 161 369T124 234Q124 140 163 89T273 37Q346 37 387 100Z" />
<glyph unicode="&#xf1;" glyph-name="ntilde" horiz-adv-x="584" d="M408 534T445 492T483 374V0H425V366Q425 429 400 458T326 487Q276 487 238 460T164 379V0H106V523H156L161 434Q232 534 337 534Q408 534 445 492ZM339 667T323 673T284 693Q270 703 260 707T239
712Q220 712 209 704T183 672L147 690Q184 758 239 758Q255 758 270 752T303 734Q306 732 317 726T338 717T357 713Q372 713 384 723T412 756L448 738Q431 702 408 684T360 666Q339 667 323 673Z" />
<glyph unicode="&#xf2;" glyph-name="ograve" horiz-adv-x="571" d="M390 534T448 463T507 263Q507 136 448 63T285 -11Q181 -11 123 61T64 261Q64 344 91 406T168 501T286 534Q390 534 448 463ZM210 485T168 428T126 261Q126 152 167 95T285 38Q361 38 403 95T446
263Q446 372 405 428T286 485Q210 485 168 428ZM382 645L186 730L212 782L400 679L382 645Z" />
<glyph unicode="&#xf3;" glyph-name="oacute" horiz-adv-x="571" d="M390 534T448 463T507 263Q507 136 448 63T285 -11Q181 -11 123 61T64 261Q64 344 91 406T168 501T286 534Q390 534 448 463ZM210 485T168 428T126 261Q126 152 167 95T285 38Q361 38 403 95T446
263Q446 372 405 428T286 485Q210 485 168 428ZM187 645L168 679L356 782L382 730L187 645Z" />
<glyph unicode="&#xf4;" glyph-name="ocircumflex" horiz-adv-x="571" d="M390 534T448 463T507 263Q507 136 448 63T285 -11Q181 -11 123 61T64 261Q64 344 91 406T168 501T286 534Q390 534 448 463ZM210 485T168 428T126 261Q126 152 167 95T285 38Q361 38 403
95T446 263Q446 372 405 428T286 485Q210 485 168 428ZM269 779H305L435 674L409 643L287 728L166 643L140 674L269 779Z" />
<glyph unicode="&#xf5;" glyph-name="otilde" horiz-adv-x="571" d="M390 534T448 463T507 263Q507 136 448 63T285 -11Q181 -11 123 61T64 261Q64 344 91 406T168 501T286 534Q390 534 448 463ZM210 485T168 428T126 261Q126 152 167 95T285 38Q361 38 403 95T446
263Q446 372 405 428T286 485Q210 485 168 428ZM327 667T311 673T272 693Q258 703 248 707T227 712Q208 712 197 704T171 672L135 690Q172 758 227 758Q243 758 258 752T291 734Q294 732 305 726T326 717T345 713Q360 713 372 723T400 756L436 738Q419 702 396
684T348 666Q327 667 311 673Z" />
<glyph unicode="&#xf6;" glyph-name="odieresis" horiz-adv-x="571" d="M390 534T448 463T507 263Q507 136 448 63T285 -11Q181 -11 123 61T64 261Q64 344 91 406T168 501T286 534Q390 534 448 463ZM210 485T168 428T126 261Q126 152 167 95T285 38Q361 38 403
95T446 263Q446 372 405 428T286 485Q210 485 168 428ZM208 742T219 731T231 702Q231 685 220 674T191 663Q174 663 163 674T151 702Q151 719 162 730T191 742Q208 742 219 731ZM397 742T408 731T420 702Q420 685 409 674T380 663Q363 663 352 674T340 702Q340
719 351 730T380 742Q397 742 408 731Z" />
<glyph unicode="&#xf7;" glyph-name="divide" horiz-adv-x="493" d="M267 160T280 147T294 113Q294 92 281 79T246 65Q226 65 212 79T198 113Q198 133 212 146T246 160Q267 160 280 147ZM267 597T280 584T294 550Q294 529 281 516T246 502Q226 502 212 516T198
550Q198 570 212 583T246 597Q267 597 280 584ZM424 357V306H69V357H424Z" />
<glyph unicode="&#xf8;" glyph-name="oslash" horiz-adv-x="571" d="M450 477T478 415T507 263Q507 136 448 63T285 -11Q254 -11 224 -3L183 -125L134 -111L177 16Q123 47 94 110T64 261Q64 344 91 406T168 501T286 534Q319 534 349 526L388 648L437 634L396 507Q450
477 478 415ZM126 111T199 61L338 478Q316 485 286 485Q210 485 168 428T126 261Q126 111 199 61ZM361 38T403 95T446 263Q446 412 373 462L235 45Q257 38 285 38Q361 38 403 95Z" />
<glyph unicode="&#xf9;" glyph-name="ugrave" horiz-adv-x="579" d="M423 0L420 93Q358 -11 249 -11Q178 -11 140 30T101 149V523H159V155Q159 94 184 66T262 37Q353 37 415 144V523H473V0H423ZM383 645L187 730L213 782L401 679L383 645Z" />
<glyph unicode="&#xfa;" glyph-name="uacute" horiz-adv-x="579" d="M423 0L420 93Q358 -11 249 -11Q178 -11 140 30T101 149V523H159V155Q159 94 184 66T262 37Q353 37 415 144V523H473V0H423ZM189 645L170 679L358 782L384 730L189 645Z" />
<glyph unicode="&#xfb;" glyph-name="ucircumflex" horiz-adv-x="579" d="M423 0L420 93Q358 -11 249 -11Q178 -11 140 30T101 149V523H159V155Q159 94 184 66T262 37Q353 37 415 144V523H473V0H423ZM270 779H306L436 674L410 643L288 728L167 643L141 674L270 779Z" />
<glyph unicode="&#xfc;" glyph-name="udieresis" horiz-adv-x="579" d="M423 0L420 93Q358 -11 249 -11Q178 -11 140 30T101 149V523H159V155Q159 94 184 66T262 37Q353 37 415 144V523H473V0H423ZM209 742T220 731T232 702Q232 685 221 674T192 663Q175 663 164
674T152 702Q152 719 163 730T192 742Q209 742 220 731ZM398 742T409 731T421 702Q421 685 410 674T381 663Q364 663 353 674T341 702Q341 719 352 730T381 742Q398 742 409 731Z" />
<glyph unicode="&#xfd;" glyph-name="yacute" horiz-adv-x="468" d="M252 -63T227 -102T162 -166T59 -204L53 -159Q105 -146 134 -127T181 -80T217 0H197L15 523H78L236 43L391 523H452L273 -2Q252 -63 227 -102ZM131 645L112 679L300 782L326 730L131 645Z" />
<glyph unicode="&#xfe;" glyph-name="thorn" horiz-adv-x="581" d="M417 534T464 464T512 264Q512 138 461 64T313 -11Q266 -11 228 8T164 61V-195L106 -205V736L164 743V451Q193 490 233 512T322 534Q417 534 464 464ZM374 38T412 95T450 264Q450 486 311 486Q264
486 230 462T164 396V118Q189 80 224 59T302 38Q374 38 412 95Z" />
<glyph unicode="&#xff;" glyph-name="ydieresis" horiz-adv-x="468" d="M252 -63T227 -102T162 -166T59 -204L53 -159Q105 -146 134 -127T181 -80T217 0H197L15 523H78L236 43L391 523H452L273 -2Q252 -63 227 -102ZM151 742T162 731T174 702Q174 685 163 674T134
663Q117 663 106 674T94 702Q94 719 105 730T134 742Q151 742 162 731ZM340 742T351 731T363 702Q363 685 352 674T323 663Q306 663 295 674T283 702Q283 719 294 730T323 742Q340 742 351 731Z" />
<glyph unicode="&#x2013;" glyph-name="endash" d="M480 338V288H40V338H480Z" />
<glyph unicode="&#x2014;" glyph-name="emdash" horiz-adv-x="783" d="M743 338V288H40V338H743Z" />
<glyph unicode="&#x2018;" glyph-name="quoteleft" horiz-adv-x="219" d="M83 527T71 539T58 571Q58 580 61 589T72 617L129 741H168L130 607Q150 595 150 571Q150 553 137 540T104 527Q83 527 71 539Z" />
<glyph unicode="&#x2019;" glyph-name="quoteright" horiz-adv-x="219" d="M133 741T145 729T158 697Q158 688 155 679T144 651L87 527H48L86 661Q66 673 66 697Q66 715 79 728T112 741Q133 741 145 729Z" />
<glyph unicode="&#x201a;" glyph-name="quotesinglbase" horiz-adv-x="219" d="M133 75T145 63T158 31Q158 22 155 13T144 -15L87 -139H48L86 -5Q66 7 66 31Q66 49 79 62T112 75Q133 75 145 63Z" />
<glyph unicode="&#x201c;" glyph-name="quotedblleft" horiz-adv-x="371" d="M74 528T62 540T49 572Q49 590 62 618L119 742H158L120 608Q130 602 135 593T140 572Q140 553 127 541T94 528Q74 528 62 540ZM226 528T214 540T201 572Q201 590 214 618L271 742H310L272
608Q282 602 287 593T292 572Q292 553 279 541T246 528Q226 528 214 540Z" />
<glyph unicode="&#x201d;" glyph-name="quotedblright" horiz-adv-x="371" d="M133 742T145 730T158 698Q158 681 144 652L88 528H48L86 661Q66 676 66 698Q66 716 79 729T112 742Q133 742 145 730ZM285 742T297 730T310 698Q310 681 296 652L240 528H200L238
661Q218 676 218 698Q218 716 231 729T264 742Q285 742 297 730Z" />
<glyph unicode="&#x201e;" glyph-name="quotedblbase" horiz-adv-x="371" d="M133 75T145 63T158 31Q158 22 155 13T144 -15L87 -139H48L86 -5Q66 7 66 31Q66 49 79 62T112 75Q133 75 145 63ZM285 75T297 63T310 31Q310 22 307 13T296 -15L239 -139H200L238 -5Q218
7 218 31Q218 49 231 62T264 75Q285 75 297 63Z" />
<glyph unicode="&#x2022;" glyph-name="bullet" horiz-adv-x="287" d="M176 420T197 399T218 345Q218 314 197 293T143 272Q111 272 90 293T69 346Q69 378 90 399T143 420Q176 420 197 399Z" />
<glyph unicode="&#x2039;" glyph-name="guilsinglleft" horiz-adv-x="342" d="M134 288L271 80L235 56L71 268V307L235 520L271 495L134 288Z" />
<glyph unicode="&#x203a;" glyph-name="guilsinglright" horiz-adv-x="342" d="M271 268L107 56L71 80L209 288L71 495L107 520L271 307V268Z" />
</font>
</defs>
</svg>
