<?xml version="1.0" standalone="no"?>
<!DOCTYPE svg PUBLIC "-//W3C//DTD SVG 1.1//EN" "http://www.w3.org/Graphics/SVG/1.1/DTD/svg11.dtd">
<svg xmlns="http://www.w3.org/2000/svg">
<defs >
<font id="FiraSans" horiz-adv-x="533" ><font-face
    font-family="Fira Sans Medium"
    units-per-em="1000"
    panose-1="2 11 6 3 5 0 0 2 0 4"
    ascent="1050"
    descent="-500"
    alphabetic="0" />
<glyph unicode=" " glyph-name="space" horiz-adv-x="242" />
<glyph unicode="!" glyph-name="exclam" horiz-adv-x="233" d="M60 244L108 691H244L165 244H60ZM131 147T151 126T172 75Q172 38 146 12T83 -15Q52 -15 32 6T12 58Q12 94 38 120T100 147Q131 147 151 126Z" />
<glyph unicode="&quot;" glyph-name="quotedbl" horiz-adv-x="413" d="M423 691L368 420H280L302 691H423ZM232 691L177 420H89L111 691H232Z" />
<glyph unicode="#" glyph-name="numbersign" horiz-adv-x="531" d="M415 240H477L464 152H392L350 0H245L286 152H163L122 0H17L58 152H-2L11 240H81L136 443H76L89 532H160L198 673H304L266 532H389L427 673H532L494 532H555L542 443H470L415 240ZM242 443L187
240H310L365 443H242Z" />
<glyph unicode="$" glyph-name="dollar" horiz-adv-x="532" d="M403 373T447 328T492 210Q492 162 471 117T401 37T276 -7L255 -158H157L179 -9Q118 -3 70 21T-11 83L65 154Q127 87 220 87Q282 87 321 115T361 200Q361 232 336 255T250 301Q77 358 77 485Q77 562
130 615T275 680L296 827H393L372 680Q460 668 532 599L462 530Q396 586 327 586Q273 586 241 564T208 498Q208 465 232 444T323 400Q403 373 447 328Z" />
<glyph unicode="%" glyph-name="percent" horiz-adv-x="836" d="M190 -36L115 17L669 716L744 663L190 -36ZM327 685T368 645T410 539Q410 492 390 445T327 367T219 335Q153 335 112 376T71 483Q71 531 91 577T155 654T261 685Q327 685 368 645ZM207 605T187 567T167
485Q167 415 224 415Q273 415 293 454T313 537Q313 605 257 605Q207 605 187 567ZM702 335T743 295T785 189Q785 142 765 95T702 17T594 -15Q528 -15 487 26T445 133Q445 180 466 227T530 304T636 335Q702 335 743 295ZM582 255T562 217T542 135Q542 65 599 65Q648
65 668 104T688 187Q688 255 632 255Q582 255 562 217Z" />
<glyph unicode="&amp;" glyph-name="ampersand" horiz-adv-x="770" d="M411 706T453 687T519 633T543 558Q543 498 503 455T380 364L512 218Q554 284 583 360L688 324Q639 224 577 147L673 44L570 -15L496 69Q397 -15 268 -15Q205 -15 159 8T88 73T63 165Q63 229
97 278T219 378Q181 421 163 456T145 532Q145 578 167 617T237 681T355 706Q411 706 453 687ZM312 620T289 597T266 534Q266 508 278 484T315 432Q370 464 396 493T423 558Q423 586 403 603T352 620Q312 620 289 597ZM230 273T213 242T195 173Q195 132 221 106T293
80Q367 80 434 136L282 306Q230 273 213 242Z" />
<glyph unicode="&apos;" glyph-name="quotesingle" horiz-adv-x="221" d="M232 691L177 420H89L111 691H232Z" />
<glyph unicode="(" glyph-name="parenleft" horiz-adv-x="316" d="M282 688T234 588T166 346Q156 279 156 217Q156 128 177 54T242 -102L156 -151Q112 -74 88 -23T47 94T30 240Q30 288 38 354Q53 465 89 550T171 700T294 854L370 796Q282 688 234 588Z" />
<glyph unicode=")" glyph-name="parenright" horiz-adv-x="316" d="M227 775T251 724T293 606T310 460Q310 401 302 346Q286 235 250 150T168 0T46 -154L-30 -96Q58 12 106 112T174 354Q184 423 184 484Q184 574 163 648T98 802L183 851Q227 775 251 724Z" />
<glyph unicode="*" glyph-name="asterisk" horiz-adv-x="436" d="M401 411L302 343L247 473L159 343L77 410L192 519L51 547L98 651L225 590L226 741H345L304 591L442 654L464 547L315 519L401 411Z" />
<glyph unicode="+" glyph-name="plus" horiz-adv-x="508" d="M471 382L457 281H310L288 128H180L202 281H55L70 382H216L237 535H346L324 382H471Z" />
<glyph unicode="," glyph-name="comma" horiz-adv-x="242" d="M132 147T152 127T173 75Q173 54 165 34T136 -25L51 -172H-28L39 1Q13 22 13 57Q13 94 38 120T101 147Q132 147 152 127Z" />
<glyph unicode="-" glyph-name="hyphen" horiz-adv-x="397" d="M362 364L347 262H48L63 364H362Z" />
<glyph unicode="." glyph-name="period" horiz-adv-x="240" d="M131 147T151 126T172 75Q172 38 146 12T83 -15Q52 -15 32 6T12 58Q12 94 38 120T100 147Q131 147 151 126Z" />
<glyph unicode="/" glyph-name="slash" horiz-adv-x="512" d="M144 -108L36 -81L392 813L500 787L144 -108Z" />
<glyph unicode="0" glyph-name="zero" horiz-adv-x="565" d="M434 685T485 621T537 436Q537 332 510 229T418 56T248 -15Q150 -15 99 49T47 235Q47 339 74 442T166 615T336 685Q434 685 485 621ZM273 588T238 529T184 331Q174 261 174 210Q174 142 193 112T254
82Q311 82 346 141T401 340Q411 411 411 462Q411 529 392 558T331 588Q273 588 238 529Z" />
<glyph unicode="1" glyph-name="one" horiz-adv-x="442" d="M187 0L263 535L102 444L59 539L294 673H406L312 0H187Z" />
<glyph unicode="2" glyph-name="two" horiz-adv-x="499" d="M376 685T428 637T481 513Q481 459 456 408T361 283T154 99L437 101L409 0H-4L8 96Q163 235 232 304T325 415T350 502Q350 542 327 563T266 584Q227 584 195 567T128 511L54 580Q153 685 283 685Q376
685 428 637Z" />
<glyph unicode="3" glyph-name="three" horiz-adv-x="502" d="M375 685T425 641T475 526Q475 471 438 423T322 355Q379 350 415 315T451 217Q451 166 424 113T336 22T183 -15Q115 -15 64 10T-21 84L59 149Q84 115 114 100T184 85Q245 85 284 124T323 227Q323 270
297 288T218 306H163L190 397H225Q267 397 295 415T336 461T349 515Q349 549 327 568T266 587Q227 587 193 573T123 527L65 602Q166 685 284 685Q375 685 425 641Z" />
<glyph unicode="4" glyph-name="four" horiz-adv-x="542" d="M423 154L401 0H278L299 154H17L29 242L280 686L386 645L167 252H313L351 421H460L436 252H516L502 154H423Z" />
<glyph unicode="5" glyph-name="five" horiz-adv-x="512" d="M228 578L203 412Q254 436 306 436Q382 436 426 388T471 252Q471 192 442 130T351 27T194 -15Q126 -15 78 10T-7 80L72 147Q96 115 126 100T197 84Q245 84 278 108T326 171T342 249Q342 344 253 344Q229
344 208 339T162 320L70 321L120 673H505L477 578H228Z" />
<glyph unicode="6" glyph-name="six" horiz-adv-x="540" d="M417 448T462 401T507 269Q507 208 480 142T394 31T250 -15Q144 -15 94 48T43 224Q43 270 50 316Q65 427 109 510T221 639T371 685Q453 685 511 640L455 563Q417 590 366 590Q303 590 256 534T189 378Q258
448 345 448Q417 448 462 401ZM301 80T329 111T369 187T381 270Q381 316 362 335T307 355Q273 355 239 336T176 282Q169 237 169 199Q169 137 189 109T255 80Q301 80 329 111Z" />
<glyph unicode="7" glyph-name="seven" horiz-adv-x="449" d="M145 -13L32 25L339 574H60L74 673H484L472 583L145 -13Z" />
<glyph unicode="8" glyph-name="eight" horiz-adv-x="559" d="M513 303T513 202Q513 142 479 93T383 14T242 -15Q174 -15 125 8T49 71T22 164Q22 291 176 352Q95 401 95 490Q95 547 126 591T211 660T333 685Q419 685 476 643T534 527Q534 475 503 434T402 359Q513
303 513 202ZM271 595T244 564T217 493Q217 458 237 438T302 399L319 393Q373 424 392 456T411 523Q411 557 391 576T330 595Q271 595 244 564ZM313 80T349 115T386 206Q386 240 363 262T281 306L254 315Q197 288 174 249T151 168Q151 127 177 104T251 80Q313 80
349 115Z" />
<glyph unicode="9" glyph-name="nine" horiz-adv-x="536" d="M416 685T470 627T524 470Q524 295 428 162T73 -26L55 67Q189 101 264 156T368 305Q308 238 222 238Q176 238 139 260T80 324T59 421Q59 486 86 546T171 646T315 685Q416 685 470 627ZM331 331T389
405Q396 448 396 482Q396 539 375 564T312 590Q244 590 215 539T185 423Q185 377 205 354T261 331Q331 331 389 405Z" />
<glyph unicode=":" glyph-name="colon" horiz-adv-x="241" d="M131 147T151 126T172 75Q172 38 146 12T83 -15Q52 -15 32 6T12 58Q12 94 38 120T100 147Q131 147 151 126ZM181 502T201 481T222 430Q222 393 196 367T133 340Q102 340 82 361T62 413Q62 449 88 475T150
502Q181 502 201 481Z" />
<glyph unicode=";" glyph-name="semicolon" horiz-adv-x="245" d="M133 147T153 127T174 75Q174 54 166 34T137 -25L52 -172H-27L40 1Q14 22 14 57Q14 94 39 120T102 147Q133 147 153 127ZM184 502T204 481T225 430Q225 393 199 367T136 340Q105 340 85 361T65
413Q65 449 91 475T153 502Q184 502 204 481Z" />
<glyph unicode="&lt;" glyph-name="less" horiz-adv-x="504" d="M155 332L454 198L398 101L42 273L59 392L462 565L496 464L155 332Z" />
<glyph unicode="=" glyph-name="equal" horiz-adv-x="502" d="M480 483L465 381H69L84 483H480ZM708 537L693 435H297L312 537H708Z" />
<glyph unicode="&gt;" glyph-name="greater" horiz-adv-x="502" d="M463 273L60 101L28 203L367 336L69 470L123 565L479 392L463 273Z" />
<glyph unicode="?" glyph-name="question" horiz-adv-x="463" d="M387 706T435 665T483 561Q483 511 464 477T418 424T347 381Q296 355 272 332T246 269Q246 259 249 244L137 226Q128 250 128 276Q128 321 145 351T188 400T254 441Q288 460 306 473T337 504T350
549Q350 576 332 590T279 604Q209 604 141 536L68 604Q165 706 298 706Q387 706 435 665ZM230 147T250 127T270 75Q270 38 244 12T182 -14Q151 -14 131 7T111 59Q111 94 137 120T198 147Q230 147 250 127Z" />
<glyph unicode="@" glyph-name="at" horiz-adv-x="1012" d="M694 706T782 660T916 533T962 354Q962 278 937 198T858 62T719 6Q665 6 632 36T595 106Q571 63 534 36T445 9Q370 9 331 56T291 184Q291 257 317 329T401 449T552 498Q638 498 711 454L673 165L672
142Q672 92 716 92Q761 92 790 135T832 241T845 361Q845 481 773 545T564 609Q422 609 334 544T208 381T170 185Q170 97 206 28T311 -80T478 -120Q571 -120 670 -85L692 -178Q579 -218 469 -218Q344 -218 249 -167T102 -25T50 184Q50 303 104 423T276 625T571 706Q694
706 782 660ZM502 94T526 116T564 166L598 402Q576 413 545 413Q471 413 439 340T407 172Q407 94 465 94Q502 94 526 116Z" />
<glyph unicode="A" glyph-name="A" horiz-adv-x="574" d="M158 160L94 0H-42L267 691H428L542 0H405L386 160H158ZM332 595L198 260H373L332 595Z" />
<glyph unicode="B" glyph-name="B" horiz-adv-x="605" d="M487 354T525 321T563 220Q563 120 490 60T250 0H43L140 691H337Q450 691 514 653T578 536Q578 466 535 423T425 365Q487 354 525 321ZM230 407H309Q371 407 407 439T444 526Q444 563 417 578T339 594H256L230
407ZM353 99T390 133T428 228Q428 315 310 315H217L187 99H259Q353 99 390 133Z" />
<glyph unicode="C" glyph-name="C" horiz-adv-x="561" d="M514 706T591 629L516 556Q465 604 399 604Q323 604 275 551T206 421T185 265Q185 176 221 134T320 91Q361 91 394 106T468 150L521 67Q479 31 425 8T307 -15Q187 -15 118 58T49 269Q49 371 85 471T199
639T394 706Q514 706 591 629Z" />
<glyph unicode="D" glyph-name="D" horiz-adv-x="641" d="M447 691T531 634T615 429Q615 310 577 214T453 59T231 0H43L140 691H307Q447 691 531 634ZM188 99H250Q334 99 386 148T459 272T481 430Q481 525 438 558T318 592H257L188 99Z" />
<glyph unicode="E" glyph-name="E" horiz-adv-x="523" d="M257 593L229 400H448L435 302H216L188 99H457L443 0H43L140 691H536L508 593H257Z" />
<glyph unicode="F" glyph-name="F" horiz-adv-x="482" d="M257 593L228 386H438L425 288H214L174 0H43L140 691H526L499 593H257Z" />
<glyph unicode="G" glyph-name="G" horiz-adv-x="630" d="M541 706T623 622L543 552Q513 581 483 593T411 606Q331 606 280 552T206 415T183 246Q183 162 216 124T316 86Q376 86 428 115L454 293H352V391H596L550 55Q438 -15 305 -15Q181 -15 115 55T48 259Q48
368 86 470T207 639T412 706Q541 706 623 622Z" />
<glyph unicode="H" glyph-name="H" horiz-adv-x="664" d="M217 309L174 0H43L140 691H271L231 414H474L513 691H644L547 0H416L459 309H217Z" />
<glyph unicode="I" glyph-name="I" horiz-adv-x="292" d="M43 0L140 691H272L175 0H43Z" />
<glyph unicode="J" glyph-name="J" horiz-adv-x="306" d="M191 -12T132 -68T-28 -155L-53 -59Q-7 -42 19 -20T57 32T76 108L159 691H289L206 99Q191 -12 132 -68Z" />
<glyph unicode="K" glyph-name="K" horiz-adv-x="605" d="M43 0L140 691H271L174 0H43ZM575 0H423L231 369L510 691H654L371 369L575 0Z" />
<glyph unicode="L" glyph-name="L" horiz-adv-x="500" d="M461 108L432 0H43L140 691H271L189 108H461Z" />
<glyph unicode="M" glyph-name="M" horiz-adv-x="786" d="M563 0L586 292Q600 468 617 578L423 75H298L235 576Q226 448 192 283L136 0H9L161 691H322L378 202L559 691H734L691 0H563Z" />
<glyph unicode="N" glyph-name="N" horiz-adv-x="664" d="M380 0L221 580Q222 508 218 438T200 276L162 0H43L140 691H307L468 111Q467 135 467 177Q467 274 480 373L526 691H644L547 0H380Z" />
<glyph unicode="O" glyph-name="O" horiz-adv-x="683" d="M522 706T590 633T658 424Q658 321 623 221T509 53T306 -15Q185 -15 117 58T49 266Q49 368 84 468T198 637T401 706Q522 706 590 633ZM316 605T269 548T203 411T184 252Q184 86 313 86Q391 86 438 143T503
281T522 443Q522 605 393 605Q316 605 269 548Z" />
<glyph unicode="P" glyph-name="P" horiz-adv-x="583" d="M459 691T524 644T590 503Q590 434 560 375T462 279T289 241H207L174 0H43L140 691H340Q459 691 524 644ZM379 340T416 386T453 499Q453 549 422 571T329 594H257L221 340H289Q379 340 416 386Z" />
<glyph unicode="Q" glyph-name="Q" horiz-adv-x="681" d="M658 303T611 195T461 40Q520 38 563 22T642 -24L549 -128Q499 -69 447 -42T306 -15Q185 -15 117 58T49 266Q49 368 84 468T198 637T401 706Q522 706 590 633T658 424Q658 303 611 195ZM184 86T313 86Q391
86 438 143T503 281T522 443Q522 605 393 605Q316 605 269 548T203 411T184 252Q184 86 313 86Z" />
<glyph unicode="R" glyph-name="R" horiz-adv-x="603" d="M588 358T422 298L557 0H413L298 277H212L174 0H43L140 691H342Q588 691 588 520Q588 358 422 298ZM310 372Q387 372 419 414T452 515Q452 557 423 576T330 595H257L226 372H310Z" />
<glyph unicode="S" glyph-name="S" horiz-adv-x="552" d="M403 706T456 684T550 619L476 547Q444 577 410 591T335 605Q282 605 248 580T213 512Q213 489 224 473T260 443T335 412Q422 384 468 341T514 219Q514 164 486 111T394 21T229 -15Q79 -15 -9 82L69 158Q135
89 231 89Q293 89 334 119T376 202Q376 241 351 264T259 311Q165 341 121 385T77 501Q77 550 104 597T190 675T333 706Q403 706 456 684Z" />
<glyph unicode="T" glyph-name="T" horiz-adv-x="522" d="M371 586L289 0H158L240 586H56L71 691H578L549 586H371Z" />
<glyph unicode="U" glyph-name="U" horiz-adv-x="648" d="M558 116T483 51T287 -15Q177 -15 120 39T62 185Q62 207 65 228L130 691H261L196 230Q193 209 193 190Q193 138 218 114T295 88Q360 88 395 124T442 235L507 691H638L573 224Q558 116 483 51Z" />
<glyph unicode="V" glyph-name="V" horiz-adv-x="556" d="M166 0L55 691H192L259 117L485 691H621L321 0H166Z" />
<glyph unicode="W" glyph-name="W" horiz-adv-x="829" d="M480 0L454 551L270 0H105L78 691H205L210 105L404 691H543L570 105L748 691H872L650 0H480Z" />
<glyph unicode="X" glyph-name="X" horiz-adv-x="554" d="M517 0H376L281 286L105 0H-38L210 368L212 369L76 691H217L298 449L453 691H595L369 373L368 371L517 0Z" />
<glyph unicode="Y" glyph-name="Y" horiz-adv-x="566" d="M312 0H180L217 261L58 691H197L297 370L487 691H628L349 262L312 0Z" />
<glyph unicode="Z" glyph-name="Z" horiz-adv-x="526" d="M154 108H470L441 0H-15L-1 101L385 586H101L115 691H549L535 589L154 108Z" />
<glyph unicode="[" glyph-name="bracketleft" horiz-adv-x="315" d="M229 720L125 -21H241L227 -120H-8L124 820H359L345 720H229Z" />
<glyph unicode="\" glyph-name="backslash" horiz-adv-x="512" d="M265 -108L160 787L270 811L376 -84L265 -108Z" />
<glyph unicode="]" glyph-name="bracketright" horiz-adv-x="315" d="M-20 -120L-6 -21H110L214 721H98L112 820H348L216 -120H-20Z" />
<glyph unicode="^" glyph-name="asciicircum" horiz-adv-x="542" d="M425 527L339 741L193 527H63L295 842H409L551 527H425Z" />
<glyph unicode="_" glyph-name="underscore" horiz-adv-x="512" d="M455 -55L441 -158H-47L-33 -55H455Z" />
<glyph unicode="`" glyph-name="grave" horiz-adv-x="314" d="M302 630L92 720L157 820L346 695L302 630Z" />
<glyph unicode="a" glyph-name="a" horiz-adv-x="571" d="M436 544T535 493L481 138Q479 120 479 116Q479 97 486 87T510 71L474 -13Q380 -3 364 75Q299 -15 207 -15Q125 -15 81 40T36 192Q36 274 66 355T163 490T330 544Q436 544 535 493ZM274 450T238 411T186
312T169 192Q169 82 244 82Q276 82 304 103T361 166L402 436Q383 444 367 447T329 450Q274 450 238 411Z" />
<glyph unicode="b" glyph-name="b" horiz-adv-x="580" d="M265 511T303 527T381 544Q459 544 501 490T543 337Q543 252 515 172T420 39T246 -15Q195 -15 147 -6T42 25L143 741L270 755L232 481Q265 511 303 527ZM303 448T275 430T218 380L179 95Q219 81 258 81Q311
81 346 121T397 220T413 339Q413 448 335 448Q303 448 275 430Z" />
<glyph unicode="c" glyph-name="c" horiz-adv-x="471" d="M420 544T484 481L420 405Q397 426 374 434T322 443Q267 443 233 406T185 313T170 201Q170 89 265 89Q294 89 319 98T377 128L426 43Q343 -15 251 -15Q150 -15 94 44T38 208Q38 284 67 361T161 491T321
544Q420 544 484 481Z" />
<glyph unicode="d" glyph-name="d" horiz-adv-x="592" d="M479 0H367L368 81Q340 37 300 11T210 -15Q128 -15 86 41T43 197Q43 276 69 355T152 489T296 544Q335 544 366 529T420 486L458 755L583 741L479 0ZM267 448T235 407T189 308T175 193Q175 82 247 82Q284
82 315 109T379 190L408 398Q391 423 370 435T319 448Q267 448 235 407Z" />
<glyph unicode="e" glyph-name="e" horiz-adv-x="529" d="M509 302T417 256T168 195Q171 84 270 84Q306 84 339 95T408 133L457 53Q361 -15 256 -15Q150 -15 94 43T38 205Q38 285 67 362T161 492T326 544Q384 544 425 525T488 474T509 404Q509 302 417 256ZM278
288T328 318T379 398Q379 420 365 436T317 453Q255 453 220 403T173 278Q278 288 328 318Z" />
<glyph unicode="f" glyph-name="f" horiz-adv-x="339" d="M306 658T286 640T261 582L253 529H378L352 437H240L185 45Q174 -33 146 -82T73 -161T-39 -218L-73 -124Q-32 -107 -7 -89T35 -40T59 42L114 437H29L42 529H127L136 590Q146 665 198 710T336 755Q410 755
473 714L428 634Q390 658 345 658Q306 658 286 640Z" />
<glyph unicode="g" glyph-name="g" horiz-adv-x="576" d="M439 544T537 493L468 28Q449 -104 385 -162T206 -220Q159 -220 108 -205T14 -165L59 -76Q133 -118 202 -118Q259 -118 295 -91T344 16L352 74Q323 40 286 20T208 0Q125 0 80 54T35 202Q35 285 66 363T164
492T333 544Q439 544 537 493ZM276 450T239 413T185 320T168 204Q168 148 188 123T243 97Q277 97 306 119T365 182L404 436Q385 444 369 447T332 450Q276 450 239 413Z" />
<glyph unicode="h" glyph-name="h" horiz-adv-x="573" d="M456 544T489 510T522 415Q522 399 519 381L465 0H339L391 359Q394 376 394 387Q394 416 381 427T343 439Q310 439 275 402T207 303L165 0H39L143 740L270 753L225 435Q256 485 302 514T397 544Q456 544 489 510Z" />
<glyph unicode="i" glyph-name="i" horiz-adv-x="279" d="M39 0L113 529H240L166 0H39ZM243 797T262 778T282 727Q282 691 257 667T195 642Q162 642 143 661T123 712Q123 748 148 772T210 797Q243 797 262 778Z" />
<glyph unicode="j" glyph-name="j" horiz-adv-x="274" d="M156 -33T128 -82T55 -161T-57 -218L-91 -124Q-50 -107 -25 -89T17 -40T41 42L109 529H235L167 45Q156 -33 128 -82ZM239 797T258 778T278 727Q278 691 253 667T191 642Q158 642 139 661T119 712Q119 748
144 772T206 797Q239 797 258 778Z" />
<glyph unicode="k" glyph-name="k" horiz-adv-x="557" d="M303 544T406 544Q466 544 504 510T542 423Q542 358 504 310T389 235L497 0H357L248 257Q336 283 373 317T411 401Q411 425 398 438T360 451Q322 451 282 419T210 323L165 0H39L143 741L271 755L228 449Q303
544 406 544Z" />
<glyph unicode="l" glyph-name="l" horiz-adv-x="288" d="M176 114Q176 88 199 88Q213 88 230 95L249 4Q208 -15 161 -15Q108 -15 79 13T50 97Q50 118 52 130L138 741L265 755L177 126L176 114Z" />
<glyph unicode="m" glyph-name="m" horiz-adv-x="839" d="M723 544T755 510T787 415Q787 405 785 381L731 0H605L657 359Q659 370 659 387Q659 416 648 427T615 439Q584 439 553 403T491 307L447 0H321L373 359Q376 376 376 387Q376 416 364 427T331 439Q300 439
269 402T207 304L165 0H39L113 529H222L217 436Q252 487 294 515T385 544Q431 544 463 517T502 441Q536 490 579 517T668 544Q723 544 755 510Z" />
<glyph unicode="n" glyph-name="n" horiz-adv-x="573" d="M456 544T489 510T522 415Q522 399 519 381L465 0H339L391 359Q394 376 394 387Q394 416 381 427T343 439Q310 439 275 402T207 303L165 0H39L113 529H222L217 431Q253 483 300 513T397 544Q456 544 489 510Z" />
<glyph unicode="o" glyph-name="o" horiz-adv-x="576" d="M426 544T481 485T537 323Q537 246 509 169T417 38T252 -15Q150 -15 95 44T39 208Q39 286 67 363T160 492T324 544Q426 544 481 485ZM262 447T229 407T183 309T169 198Q169 82 259 82Q315 82 347 123T393
222T406 333Q406 392 384 419T317 447Q262 447 229 407Z" />
<glyph unicode="p" glyph-name="p" horiz-adv-x="588" d="M459 544T501 490T543 337Q543 253 515 173T423 39T262 -15Q212 -15 164 1L136 -205L8 -220L113 529H223L222 467Q294 544 381 544Q459 544 501 490ZM303 448T275 430T218 380L179 95Q219 81 258 81Q311
81 346 121T397 220T413 339Q413 448 335 448Q303 448 275 430Z" />
<glyph unicode="q" glyph-name="q" horiz-adv-x="574" d="M437 544T535 493L437 -206L307 -220L348 55Q326 26 288 6T206 -15Q124 -15 80 40T36 192Q36 275 66 356T163 490T331 544Q437 544 535 493ZM275 450T239 411T185 312T168 192Q168 82 245 82Q277 82 305
103T362 166L403 436Q384 444 368 447T330 450Q275 450 239 411Z" />
<glyph unicode="r" glyph-name="r" horiz-adv-x="387" d="M396 543T423 535L386 412Q362 418 342 418Q295 418 262 378T202 261L165 0H39L113 529H222L218 426Q246 483 286 513T370 543Q396 543 423 535Z" />
<glyph unicode="s" glyph-name="s" horiz-adv-x="468" d="M322 544T370 526T452 477L393 403Q368 425 335 437T270 449Q227 449 204 435T181 393Q181 369 202 355T285 322Q358 300 393 262T428 161Q428 109 400 69T319 7T198 -15Q132 -15 79 8T-10 67L59 139Q85
112 121 97T200 81Q251 81 275 101T300 149Q300 170 291 183T259 206T192 233Q122 256 88 292T54 383Q54 425 78 462T152 521T270 544Q322 544 370 526Z" />
<glyph unicode="t" glyph-name="t" horiz-adv-x="367" d="M195 141T195 133Q195 109 205 99T238 89Q269 89 305 109L341 23Q280 -15 207 -15Q139 -15 104 20T68 121Q68 139 71 160L110 437H28L41 529H128L161 649L267 661L248 529H370L344 437H236L197 159Q195
141 195 133Z" />
<glyph unicode="u" glyph-name="u" horiz-adv-x="569" d="M347 0L352 87Q315 38 273 12T181 -15Q118 -15 85 19T52 116Q52 133 55 152L108 529H234L184 167Q182 156 182 138Q182 110 193 99T227 86Q262 86 293 114T356 190L404 529H530L456 0H347Z" />
<glyph unicode="v" glyph-name="v" horiz-adv-x="496" d="M137 0L38 529H174L227 103L397 529H532L288 0H137Z" />
<glyph unicode="w" glyph-name="w" horiz-adv-x="726" d="M408 0L387 415L248 0H92L50 529H176L188 94L339 529H469L491 94L630 529H751L565 0H408Z" />
<glyph unicode="x" glyph-name="x" horiz-adv-x="492" d="M458 0H318L237 207L98 0H-41L172 283L52 529H192L257 349L371 529H510L324 277L458 0Z" />
<glyph unicode="y" glyph-name="y" horiz-adv-x="498" d="M252 -100T178 -154T-9 -218L-13 -125Q63 -113 102 -85T172 2L130 0L38 529H170L223 88L402 529H534L295 -3Q252 -100 178 -154Z" />
<glyph unicode="z" glyph-name="z" horiz-adv-x="441" d="M150 100H396L370 0H-20L-8 92L282 429H62L76 529H452L440 437L150 100Z" />
<glyph unicode="{" glyph-name="braceleft" horiz-adv-x="315" d="M305 746T284 731T258 680L228 470Q220 412 196 387T121 347Q159 338 178 318T197 257Q197 243 194 225L164 15L163 -1Q163 -26 179 -36T237 -46L228 -138Q134 -138 90 -107T45 -10Q45 11 47 22L74
220Q77 238 77 250Q77 276 64 286T16 297L32 402Q70 402 88 421T112 484L140 683Q148 739 170 772T237 822T361 838L351 746Q305 746 284 731Z" />
<glyph unicode="|" glyph-name="bar" horiz-adv-x="380" d="M81 -104L208 809H324L197 -104H81Z" />
<glyph unicode="}" glyph-name="braceright" horiz-adv-x="315" d="M34 -46T55 -31T81 20L111 230Q119 288 143 313T217 353Q180 363 161 382T142 444Q142 451 144 475L174 685Q176 697 176 701Q176 726 160 736T101 746L111 838Q205 838 249 807T294 710Q294
690 292 678L264 480Q262 458 262 451Q262 425 275 415T322 403L307 298Q269 298 251 279T226 216L199 17Q191 -39 169 -72T101 -122T-23 -138L-12 -46Q34 -46 55 -31Z" />
<glyph unicode="~" glyph-name="asciitilde" horiz-adv-x="494" d="M220 399T241 389T288 361Q304 349 314 344T337 338Q362 338 378 351T413 391L483 348Q453 300 415 270T324 240Q290 240 268 250T221 279Q205 291 195 296T174 301Q148 301 132 287T97 244L26
287Q96 398 188 398Q220 399 241 389Z" />
<glyph unicode="&#xa0;" glyph-name="nbspace" horiz-adv-x="242" />
<glyph unicode="&#xa1;" glyph-name="exclamdown" horiz-adv-x="232" d="M180 503T200 482T221 431Q221 394 195 368T132 341Q101 341 81 362T61 414Q61 450 87 476T149 503Q180 503 200 482ZM-15 -204L63 241H168L121 -204H-15Z" />
<glyph unicode="&#xa2;" glyph-name="cent" horiz-adv-x="471" d="M355 -6T281 -13L260 -158H163L184 -7Q114 11 76 67T38 208Q38 276 61 345T135 468T262 538L283 688H379L358 542Q432 531 484 481L420 405Q397 426 374 434T322 443Q267 443 233 406T185 313T170
201Q170 89 265 89Q294 89 319 98T377 128L426 43Q355 -6 281 -13Z" />
<glyph unicode="&#xa3;" glyph-name="sterling" horiz-adv-x="531" d="M487 685T548 591L465 536Q447 563 426 574T374 586Q330 586 303 561T270 488L256 388H448L438 316H246L233 222Q226 174 210 147T155 99L462 100L434 0H-5L7 96Q45 108 64 123T93 161T108
223L121 316H55L66 388H131L146 493Q158 581 215 633T367 685Q487 685 548 591Z" />
<glyph unicode="&#xa4;" glyph-name="currency" horiz-adv-x="560" d="M497 273T462 221L538 146L475 83L397 159Q346 128 279 128Q215 128 164 160L86 83L23 146L100 223Q66 274 66 341Q66 406 99 459L23 538L86 601L164 522Q215 554 279 554Q346 554 397 523L475
601L538 538L462 461Q497 409 497 341Q497 273 462 221ZM334 219T361 251T389 342Q389 400 362 432T281 464Q228 464 200 432T172 342Q172 283 200 251T281 219Q334 219 361 251Z" />
<glyph unicode="&#xa5;" glyph-name="yen" horiz-adv-x="546" d="M482 349L472 276H339L328 196H460L450 124H317L300 0H173L190 124H57L67 196H201L212 276H78L88 349H191L56 673H190L291 385L472 673H605L380 349H482Z" />
<glyph unicode="&#xa6;" glyph-name="brokenbar" horiz-adv-x="380" d="M157 443L208 809H324L273 443H157ZM81 -104L132 262H248L197 -104H81Z" />
<glyph unicode="&#xa7;" glyph-name="section" horiz-adv-x="534" d="M412 429T446 395T481 309Q481 266 456 234T382 173Q427 136 427 78Q427 37 404 2T331 -56T205 -78Q153 -78 108 -63T28 -23L79 55Q136 15 207 15Q259 15 281 32T304 76Q304 94 295 106T265
128T198 155Q131 176 97 210T63 296Q63 377 162 432Q120 471 120 524Q120 599 180 641T335 683Q386 683 432 667T514 625L461 552Q402 592 336 592Q286 592 264 575T242 530Q242 505 262 489T345 451Q412 429 446 395ZM287 227T316 213Q365 252 365 291Q365 315
347 333T282 368Q250 380 225 392Q180 353 180 313Q180 289 196 272T250 240Q287 227 316 213Z" />
<glyph unicode="&#xa8;" glyph-name="dieresis" horiz-adv-x="416" d="M196 785T213 768T231 723Q231 692 209 670T156 647Q128 647 111 665T93 710Q93 741 115 763T168 785Q196 785 213 768ZM415 785T432 768T450 723Q450 692 428 670T374 647Q347 647 330 665T312
710Q312 741 334 763T387 785Q415 785 432 768Z" />
<glyph unicode="&#xa9;" glyph-name="copyright" horiz-adv-x="810" d="M495 758T570 715T688 597T732 433Q732 344 689 270T570 153T406 109Q317 109 242 152T122 270T78 433Q78 522 122 596T241 714T406 758Q495 758 570 715ZM336 691T279 657T189 563T156 433Q156
362 188 304T278 211T406 177Q476 177 533 211T622 303T655 433Q655 504 623 563T533 656T406 691Q336 691 279 657ZM478 628T532 582L489 526Q471 541 454 547T416 553Q379 553 357 524T334 434Q334 374 355 345T415 316Q439 316 458 323T497 347L536 290Q481
240 409 240Q331 240 285 291T238 434Q238 494 260 538T321 605T408 628Q478 628 532 582Z" />
<glyph unicode="&#xaa;" glyph-name="ordfeminine" horiz-adv-x="492" d="M375 691T412 662T450 576Q450 567 448 545L427 393Q426 387 426 377Q426 366 431 359T449 346L416 269Q380 272 358 285T326 326Q277 267 194 267Q136 267 104 300T71 384Q71 445 120
486T283 527H331L333 541L335 563Q335 587 320 596T271 605Q226 605 157 583L138 662Q218 691 296 691Q375 691 412 662ZM237 460T214 442T191 393Q191 374 201 363T233 352Q279 352 313 394L322 460H289Q237 460 214 442ZM419 102L405 0H16L30 102H419Z" />
<glyph unicode="&#xab;" glyph-name="guillemotleft" horiz-adv-x="596" d="M173 286L274 77L192 25L40 244L51 327L259 547L332 494L173 286ZM426 286L527 77L445 25L293 244L304 327L512 547L585 494L426 286Z" />
<glyph unicode="&#xac;" glyph-name="logicalnot" horiz-adv-x="509" d="M329 126L350 275H55L69 377H471L436 126H329Z" />
<glyph unicode="&#xad;" glyph-name="softhyphen" horiz-adv-x="397" d="M362 364L347 262H48L63 364H362Z" />
<glyph unicode="&#xae;" glyph-name="registered" horiz-adv-x="639" d="M394 755T454 720T550 623T585 488Q585 414 550 354T455 259T319 224Q246 224 185 259T89 354T54 488Q54 562 89 623T185 719T319 755Q394 755 454 720ZM376 283T421 310T492 383T517 488Q517
546 492 593T422 668T319 696Q263 696 218 669T148 594T122 488Q122 431 147 384T218 310T319 283Q376 283 421 310ZM430 520T414 500T369 471L443 355H368L308 459H286V355H221V634H302Q430 634 430 548Q430 520 414 500ZM315 511Q364 511 364 549Q364 585 314
585H286V511H315Z" />
<glyph unicode="&#xaf;" glyph-name="overscore" horiz-adv-x="343" d="M96 752H383L371 661H83L96 752Z" />
<glyph unicode="&#xb0;" glyph-name="degree" horiz-adv-x="514" d="M193 375T159 392T104 442T83 519Q83 576 111 618T182 683T273 706Q313 706 347 689T403 640T424 563Q424 506 396 463T324 398T233 375Q193 375 159 392ZM272 453T298 478T330 545Q332 551
332 562Q332 594 315 611T269 628Q235 628 209 604T176 537Q175 531 175 520Q175 488 192 471T237 453Q272 453 298 478Z" />
<glyph unicode="&#xb1;" glyph-name="plusminus" horiz-adv-x="508" d="M427 102L412 0H16L31 102H427ZM478 432L464 331H317L295 178H187L209 331H62L77 432H223L244 585H353L331 432H478Z" />
<glyph unicode="&#xb2;" glyph-name="twosuperior" horiz-adv-x="392" d="M283 749T318 718T353 639Q353 626 352 620Q347 588 329 559T270 493T153 396L330 398L309 321H28L37 394Q128 470 168 507T227 569T250 620Q254 644 242 658T205 672Q181 672 161 662T118
628L62 677Q93 711 133 730T219 749Q283 749 318 718Z" />
<glyph unicode="&#xb3;" glyph-name="threesuperior" horiz-adv-x="392" d="M285 749T320 722T355 651Q355 642 354 637Q342 563 251 542Q291 540 316 517T341 453Q341 415 320 383T258 330T162 310Q114 310 77 327T18 376L80 425Q112 386 160 386Q196 386 218
407T241 463Q241 486 226 496T177 506H140L161 574H183Q213 574 232 589T255 631Q259 651 246 663T207 675Q160 675 116 637L71 694Q138 749 221 749Q285 749 320 722Z" />
<glyph unicode="&#xb4;" glyph-name="acute" horiz-adv-x="314" d="M116 630L89 695L312 820L350 720L116 630Z" />
<glyph unicode="&#xb5;" glyph-name="uni00B5" horiz-adv-x="576" d="M475 126T475 80Q475 38 482 -2L365 -13Q358 9 356 27T354 76Q328 37 294 14T220 -10Q170 -10 147 18Q152 -4 152 -28Q152 -59 145 -107L131 -204L8 -217L113 529H239L187 157Q186 151 186
139Q186 110 199 99T237 86Q304 86 355 166L405 529H531L482 179Q475 126 475 80Z" />
<glyph unicode="&#xb6;" glyph-name="paragraph" horiz-adv-x="755" d="M563 -204L450 -219L563 597H463L351 -204L238 -219L306 272Q206 276 155 323T104 449Q104 467 107 485Q121 584 195 638T390 691L389 689L391 691H689L563 -204Z" />
<glyph unicode="&#xb7;" glyph-name="middot" horiz-adv-x="240" d="M166 390T186 370T206 318Q206 281 180 255T118 228Q86 228 66 249T46 302Q46 337 72 363T134 390Q166 390 186 370Z" />
<glyph unicode="&#xb8;" glyph-name="cedilla" horiz-adv-x="292" d="M164 -56T185 -78T207 -134Q207 -163 192 -190T143 -235T59 -253Q29 -253 3 -245T-40 -223L-2 -162Q25 -178 56 -178Q80 -179 96 -169T112 -139Q112 -121 94 -114T28 -106L58 16H132L121 -52Q164
-56 185 -78Z" />
<glyph unicode="&#xb9;" glyph-name="onesuperior" horiz-adv-x="392" d="M157 321L201 644L101 587L66 654L224 740H312L253 321H157Z" />
<glyph unicode="&#xba;" glyph-name="ordmasculine" horiz-adv-x="492" d="M385 691T433 646T481 518Q481 459 459 402T386 306T254 267Q168 267 120 312T72 440Q72 499 94 556T167 652T300 691Q385 691 433 646ZM240 604T216 552T192 433Q192 354 256 354Q313
354 337 408T361 527Q361 604 298 604Q240 604 216 552ZM421 102L407 0H11L26 102H421Z" />
<glyph unicode="&#xbb;" glyph-name="guillemotright" horiz-adv-x="591" d="M298 244L89 25L16 77L175 286L74 494L156 547L308 327L298 244ZM545 244L336 25L263 77L422 286L321 494L403 547L555 327L545 244Z" />
<glyph unicode="&#xbc;" glyph-name="onequarter" horiz-adv-x="928" d="M150 272L195 595L94 539L60 605L217 692H305L246 272H150ZM253 -82L180 -44L696 755L767 717L253 -82ZM823 90L810 0H717L729 90H542L551 157L711 428L791 397L654 164H740L768 263H847L833
164H882L871 90H823Z" />
<glyph unicode="&#xbd;" glyph-name="onehalf" horiz-adv-x="928" d="M150 272L195 595L94 539L60 605L217 692H305L246 272H150ZM253 -82L180 -44L696 755L767 717L253 -82ZM811 428T846 397T881 318Q881 305 880 299Q875 267 857 238T798 172T681 75L858 77L837
0H556L565 73Q656 149 696 186T755 248T778 299Q782 323 770 337T733 351Q709 351 689 341T646 307L590 356Q621 390 661 409T747 428Q811 428 846 397Z" />
<glyph unicode="&#xbe;" glyph-name="threequarters" horiz-adv-x="928" d="M278 700T313 673T348 602Q348 593 347 589Q337 516 244 493Q284 491 309 468T334 405Q334 367 313 334T251 282T155 262Q107 262 71 279T12 327L73 376Q105 337 153 337Q189 337 211
357T234 413Q234 436 218 446T170 457H133L154 526H177Q206 526 225 540T249 582Q252 603 239 614T200 626Q153 626 109 588L65 645Q129 700 214 700Q278 700 313 673ZM253 -82L180 -44L696 755L767 717L253 -82ZM823 90L810 0H717L729 90H542L551 157L711 428L791
397L654 164H740L768 263H847L833 164H882L871 90H823Z" />
<glyph unicode="&#xbf;" glyph-name="questiondown" horiz-adv-x="463" d="M228 346T208 367T187 419Q187 455 213 481T276 508Q307 508 327 487T347 435Q347 399 321 373T259 346Q228 346 208 367ZM70 -220T23 -179T-25 -75Q-25 -24 -6 9T40 63T111 106Q145 124
165 137T198 169T211 217Q211 233 208 242L321 260Q329 236 329 211Q329 166 312 136T269 87T204 46Q170 27 152 14T121 -18T108 -63Q108 -89 126 -103T178 -117Q249 -117 316 -50L390 -118Q291 -220 159 -220Q70 -220 23 -179Z" />
<glyph unicode="&#xc0;" glyph-name="Agrave" horiz-adv-x="574" d="M158 160L94 0H-42L267 691H428L542 0H405L386 160H158ZM332 595L198 260H373L332 595ZM461 751L241 837L298 936L499 817L461 751Z" />
<glyph unicode="&#xc1;" glyph-name="Aacute" horiz-adv-x="574" d="M158 160L94 0H-42L267 691H428L542 0H405L386 160H158ZM332 595L198 260H373L332 595ZM267 751L237 817L455 936L499 836L267 751Z" />
<glyph unicode="&#xc2;" glyph-name="Acircumflex" horiz-adv-x="574" d="M158 160L94 0H-42L267 691H428L542 0H405L386 160H158ZM332 595L198 260H373L332 595ZM237 757L193 812L346 933H425L545 812L493 757L376 840L237 757Z" />
<glyph unicode="&#xc3;" glyph-name="Atilde" horiz-adv-x="574" d="M158 160L94 0H-42L267 691H428L542 0H405L386 160H158ZM332 595L198 260H373L332 595ZM401 771T385 778T351 799Q328 817 313 817Q295 817 281 806T251 770L188 807Q213 854 246 882T317 910Q339
910 354 903T388 882Q400 873 408 869T425 864Q441 864 454 875T485 909L550 872Q523 824 490 798T422 771Q401 771 385 778Z" />
<glyph unicode="&#xc4;" glyph-name="Adieresis" horiz-adv-x="574" d="M158 160L94 0H-42L267 691H428L542 0H405L386 160H158ZM332 595L198 260H373L332 595ZM294 911T311 894T329 849Q329 818 307 796T253 773Q226 773 209 791T191 836Q191 867 213 889T266
911Q294 911 311 894ZM513 911T530 894T548 849Q548 818 526 796T472 773Q444 773 427 791T409 836Q409 867 431 889T485 911Q513 911 530 894Z" />
<glyph unicode="&#xc5;" glyph-name="Aring" horiz-adv-x="574" d="M158 160L94 0H-42L267 691H428L542 0H405L386 160H158ZM332 595L198 260H373L332 595ZM437 979T467 949T498 873Q498 837 480 807T429 758T358 740Q306 740 276 770T245 847Q245 882 263 912T313
961T385 979Q437 979 467 949ZM356 913T341 898T322 855V846Q322 827 333 817T363 807Q386 807 401 821T420 864Q421 867 421 873Q421 892 410 902T380 913Q356 913 341 898Z" />
<glyph unicode="&#xc6;" glyph-name="AE" horiz-adv-x="821" d="M505 399H751L738 301H513L531 99H757L743 0H414L404 160H165L86 0H-54L307 691H802L774 593H488L505 399ZM375 591L213 260H397L375 591Z" />
<glyph unicode="&#xc7;" glyph-name="Ccedilla" horiz-adv-x="561" d="M480 32T427 9T312 -15L306 -51Q349 -55 370 -77T392 -134Q392 -163 377 -190T328 -234T244 -252Q213 -252 188 -244T145 -223L183 -162Q210 -178 241 -178Q264 -179 280 -169T297 -139Q297
-121 278 -114T213 -106L237 -7Q148 13 99 83T49 269Q49 371 85 471T199 639T394 706Q514 706 591 629L516 556Q465 604 399 604Q323 604 275 551T206 421T185 265Q185 176 221 134T320 91Q361 91 394 106T468 150L521 67Q480 32 427 9Z" />
<glyph unicode="&#xc8;" glyph-name="Egrave" horiz-adv-x="523" d="M257 593L229 400H448L435 302H216L188 99H457L443 0H43L140 691H536L508 593H257ZM454 751L234 837L291 936L492 817L454 751Z" />
<glyph unicode="&#xc9;" glyph-name="Eacute" horiz-adv-x="523" d="M257 593L229 400H448L435 302H216L188 99H457L443 0H43L140 691H536L508 593H257ZM260 751L230 817L448 936L492 836L260 751Z" />
<glyph unicode="&#xca;" glyph-name="Ecircumflex" horiz-adv-x="523" d="M257 593L229 400H448L435 302H216L188 99H457L443 0H43L140 691H536L508 593H257ZM230 757L186 812L339 933H418L538 812L486 757L369 840L230 757Z" />
<glyph unicode="&#xcb;" glyph-name="Edieresis" horiz-adv-x="523" d="M257 593L229 400H448L435 302H216L188 99H457L443 0H43L140 691H536L508 593H257ZM286 911T303 894T321 849Q321 818 299 796T245 773Q218 773 201 791T183 836Q183 867 205 889T258 911Q286
911 303 894ZM505 911T522 894T540 849Q540 818 518 796T464 773Q436 773 419 791T401 836Q401 867 423 889T477 911Q505 911 522 894Z" />
<glyph unicode="&#xcc;" glyph-name="Igrave" horiz-adv-x="292" d="M43 0L140 691H272L175 0H43ZM576 751L356 837L413 936L614 817L576 751Z" />
<glyph unicode="&#xcd;" glyph-name="Iacute" horiz-adv-x="292" d="M43 0L140 691H272L175 0H43ZM382 751L352 817L570 936L614 836L382 751Z" />
<glyph unicode="&#xce;" glyph-name="Icircumflex" horiz-adv-x="292" d="M43 0L140 691H272L175 0H43ZM352 757L308 812L461 933H540L660 812L608 757L491 840L352 757Z" />
<glyph unicode="&#xcf;" glyph-name="Idieresis" horiz-adv-x="292" d="M43 0L140 691H272L175 0H43ZM408 911T425 894T443 849Q443 818 421 796T367 773Q340 773 323 791T305 836Q305 867 327 889T380 911Q408 911 425 894ZM627 911T644 894T662 849Q662 818
640 796T586 773Q558 773 541 791T523 836Q523 867 545 889T599 911Q627 911 644 894Z" />
<glyph unicode="&#xd0;" glyph-name="Eth" horiz-adv-x="650" d="M456 691T540 634T625 429Q625 309 587 213T463 59T241 0H52L96 310H24L35 396H108L150 691H317Q456 691 540 634ZM344 99T395 148T468 271T490 430Q490 525 447 558T328 592H266L239 396H385L373
310H227L198 99H260Q344 99 395 148Z" />
<glyph unicode="&#xd1;" glyph-name="Ntilde" horiz-adv-x="664" d="M380 0L221 580Q222 508 218 438T200 276L162 0H43L140 691H307L468 111Q467 135 467 177Q467 274 480 373L526 691H644L547 0H380ZM453 771T437 778T403 799Q380 817 365 817Q347 817 333 806T303
770L240 807Q265 854 298 882T369 910Q391 910 406 903T440 882Q452 873 460 869T477 864Q493 864 506 875T537 909L602 872Q575 824 542 798T474 771Q453 771 437 778Z" />
<glyph unicode="&#xd2;" glyph-name="Ograve" horiz-adv-x="683" d="M522 706T590 633T658 424Q658 321 623 221T509 53T306 -15Q185 -15 117 58T49 266Q49 368 84 468T198 637T401 706Q522 706 590 633ZM316 605T269 548T203 411T184 252Q184 86 313 86Q391 86
438 143T503 281T522 443Q522 605 393 605Q316 605 269 548ZM518 751L298 837L355 936L556 817L518 751Z" />
<glyph unicode="&#xd3;" glyph-name="Oacute" horiz-adv-x="683" d="M522 706T590 633T658 424Q658 321 623 221T509 53T306 -15Q185 -15 117 58T49 266Q49 368 84 468T198 637T401 706Q522 706 590 633ZM316 605T269 548T203 411T184 252Q184 86 313 86Q391 86
438 143T503 281T522 443Q522 605 393 605Q316 605 269 548ZM324 751L294 817L512 936L556 836L324 751Z" />
<glyph unicode="&#xd4;" glyph-name="Ocircumflex" horiz-adv-x="683" d="M522 706T590 633T658 424Q658 321 623 221T509 53T306 -15Q185 -15 117 58T49 266Q49 368 84 468T198 637T401 706Q522 706 590 633ZM316 605T269 548T203 411T184 252Q184 86 313 86Q391
86 438 143T503 281T522 443Q522 605 393 605Q316 605 269 548ZM294 757L250 812L403 933H482L602 812L550 757L433 840L294 757Z" />
<glyph unicode="&#xd5;" glyph-name="Otilde" horiz-adv-x="683" d="M522 706T590 633T658 424Q658 321 623 221T509 53T306 -15Q185 -15 117 58T49 266Q49 368 84 468T198 637T401 706Q522 706 590 633ZM316 605T269 548T203 411T184 252Q184 86 313 86Q391 86
438 143T503 281T522 443Q522 605 393 605Q316 605 269 548ZM458 771T442 778T408 799Q385 817 370 817Q352 817 338 806T308 770L245 807Q270 854 303 882T374 910Q396 910 411 903T445 882Q457 873 465 869T482 864Q498 864 511 875T542 909L607 872Q580 824
547 798T479 771Q458 771 442 778Z" />
<glyph unicode="&#xd6;" glyph-name="Odieresis" horiz-adv-x="683" d="M522 706T590 633T658 424Q658 321 623 221T509 53T306 -15Q185 -15 117 58T49 266Q49 368 84 468T198 637T401 706Q522 706 590 633ZM316 605T269 548T203 411T184 252Q184 86 313 86Q391
86 438 143T503 281T522 443Q522 605 393 605Q316 605 269 548ZM350 911T367 894T385 849Q385 818 363 796T309 773Q282 773 265 791T247 836Q247 867 269 889T322 911Q350 911 367 894ZM569 911T586 894T604 849Q604 818 582 796T528 773Q500 773 483 791T465
836Q465 867 487 889T541 911Q569 911 586 894Z" />
<glyph unicode="&#xd7;" glyph-name="multiply" horiz-adv-x="502" d="M327 307L429 188L349 115L248 235L114 115L51 188L186 307L84 426L165 499L266 379L400 499L463 426L327 307Z" />
<glyph unicode="&#xd8;" glyph-name="Oslash" horiz-adv-x="683" d="M604 631T631 570T658 424Q658 321 623 221T509 53T306 -15Q278 -15 248 -10L195 -131L95 -104L154 27Q103 61 76 121T49 266Q49 368 84 468T198 637T401 706Q434 706 458 702L512 824L611 796L552
665Q604 631 631 570ZM316 605T269 548T202 411T182 252Q182 158 216 121L427 603Q407 605 393 605Q316 605 269 548ZM391 86T438 143T505 281T524 443Q524 535 490 572L279 89Q295 86 313 86Q391 86 438 143Z" />
<glyph unicode="&#xd9;" glyph-name="Ugrave" horiz-adv-x="648" d="M558 116T483 51T287 -15Q177 -15 120 39T62 185Q62 207 65 228L130 691H261L196 230Q193 209 193 190Q193 138 218 114T295 88Q360 88 395 124T442 235L507 691H638L573 224Q558 116 483 51ZM497
751L277 837L334 936L535 817L497 751Z" />
<glyph unicode="&#xda;" glyph-name="Uacute" horiz-adv-x="648" d="M558 116T483 51T287 -15Q177 -15 120 39T62 185Q62 207 65 228L130 691H261L196 230Q193 209 193 190Q193 138 218 114T295 88Q360 88 395 124T442 235L507 691H638L573 224Q558 116 483 51ZM303
751L273 817L491 936L535 836L303 751Z" />
<glyph unicode="&#xdb;" glyph-name="Ucircumflex" horiz-adv-x="648" d="M558 116T483 51T287 -15Q177 -15 120 39T62 185Q62 207 65 228L130 691H261L196 230Q193 209 193 190Q193 138 218 114T295 88Q360 88 395 124T442 235L507 691H638L573 224Q558 116 483
51ZM273 757L229 812L382 933H461L581 812L529 757L412 840L273 757Z" />
<glyph unicode="&#xdc;" glyph-name="Udieresis" horiz-adv-x="648" d="M558 116T483 51T287 -15Q177 -15 120 39T62 185Q62 207 65 228L130 691H261L196 230Q193 209 193 190Q193 138 218 114T295 88Q360 88 395 124T442 235L507 691H638L573 224Q558 116 483
51ZM330 911T347 894T365 849Q365 818 343 796T289 773Q262 773 245 791T227 836Q227 867 249 889T302 911Q330 911 347 894ZM549 911T566 894T584 849Q584 818 562 796T508 773Q480 773 463 791T445 836Q445 867 467 889T521 911Q549 911 566 894Z" />
<glyph unicode="&#xdd;" glyph-name="Yacute" horiz-adv-x="566" d="M312 0H180L217 261L58 691H197L297 370L487 691H628L349 262L312 0ZM264 751L234 817L452 936L496 836L264 751Z" />
<glyph unicode="&#xde;" glyph-name="Thorn" horiz-adv-x="584" d="M444 578T509 530T574 385Q574 319 545 259T449 160T272 120H190L174 0H43L140 691H271L255 578H324Q444 578 509 530ZM361 219T399 267T437 383Q437 435 406 458T313 481H241L204 219H272Q361
219 399 267Z" />
<glyph unicode="&#xdf;" glyph-name="germandbls" horiz-adv-x="592" d="M404 403T417 388T458 349Q487 325 506 306T538 255T552 181Q552 134 529 89T457 14T339 -15Q304 -15 272 -6T217 16L263 101Q293 85 329 85Q378 85 400 113T423 175Q423 210 407 233T356
287Q322 316 305 339T288 397Q288 439 305 464T356 518Q385 542 399 561T413 611Q413 636 396 648T350 661Q305 661 277 630T240 536L171 45Q160 -33 132 -82T60 -161T-53 -218L-86 -124Q-46 -108 -21 -91T20 -44T44 34L114 538Q128 641 191 698T358 755Q441 755
487 717T534 618Q534 574 514 548T456 493Q428 470 416 457T404 423Q404 403 417 388Z" />
<glyph unicode="&#xe0;" glyph-name="agrave" horiz-adv-x="571" d="M436 544T535 493L481 138Q479 120 479 116Q479 97 486 87T510 71L474 -13Q380 -3 364 75Q299 -15 207 -15Q125 -15 81 40T36 192Q36 274 66 355T163 490T330 544Q436 544 535 493ZM274 450T238
411T186 312T169 192Q169 82 244 82Q276 82 304 103T361 166L402 436Q383 444 367 447T329 450Q274 450 238 411ZM455 630L245 720L310 820L499 695L455 630Z" />
<glyph unicode="&#xe1;" glyph-name="aacute" horiz-adv-x="571" d="M436 544T535 493L481 138Q479 120 479 116Q479 97 486 87T510 71L474 -13Q380 -3 364 75Q299 -15 207 -15Q125 -15 81 40T36 192Q36 274 66 355T163 490T330 544Q436 544 535 493ZM274 450T238
411T186 312T169 192Q169 82 244 82Q276 82 304 103T361 166L402 436Q383 444 367 447T329 450Q274 450 238 411ZM249 630L222 695L445 820L483 720L249 630Z" />
<glyph unicode="&#xe2;" glyph-name="acircumflex" horiz-adv-x="571" d="M436 544T535 493L481 138Q479 120 479 116Q479 97 486 87T510 71L474 -13Q380 -3 364 75Q299 -15 207 -15Q125 -15 81 40T36 192Q36 274 66 355T163 490T330 544Q436 544 535 493ZM274
450T238 411T186 312T169 192Q169 82 244 82Q276 82 304 103T361 166L402 436Q383 444 367 447T329 450Q274 450 238 411ZM336 808H415L534 682L480 627L365 715L226 627L182 682L336 808Z" />
<glyph unicode="&#xe3;" glyph-name="atilde" horiz-adv-x="571" d="M436 544T535 493L481 138Q479 120 479 116Q479 97 486 87T510 71L474 -13Q380 -3 364 75Q299 -15 207 -15Q125 -15 81 40T36 192Q36 274 66 355T163 490T330 544Q436 544 535 493ZM274 450T238
411T186 312T169 192Q169 82 244 82Q276 82 304 103T361 166L402 436Q383 444 367 447T329 450Q274 450 238 411ZM397 645T382 652T346 673Q323 691 308 691Q290 691 277 680T246 644L183 681Q208 727 241 755T313 784Q335 784 350 777T383 756Q395 747 403 743T420
738Q436 738 450 749T480 783L545 746Q518 698 485 671T417 644Q397 645 382 652Z" />
<glyph unicode="&#xe4;" glyph-name="adieresis" horiz-adv-x="571" d="M436 544T535 493L481 138Q479 120 479 116Q479 97 486 87T510 71L474 -13Q380 -3 364 75Q299 -15 207 -15Q125 -15 81 40T36 192Q36 274 66 355T163 490T330 544Q436 544 535 493ZM274 450T238
411T186 312T169 192Q169 82 244 82Q276 82 304 103T361 166L402 436Q383 444 367 447T329 450Q274 450 238 411ZM283 785T300 768T318 723Q318 692 296 670T243 647Q215 647 198 665T180 710Q180 741 202 763T255 785Q283 785 300 768ZM502 785T519 768T537 723Q537
692 515 670T461 647Q434 647 417 665T399 710Q399 741 421 763T474 785Q502 785 519 768Z" />
<glyph unicode="&#xe5;" glyph-name="aring" horiz-adv-x="571" d="M436 544T535 493L481 138Q479 120 479 116Q479 97 486 87T510 71L474 -13Q380 -3 364 75Q299 -15 207 -15Q125 -15 81 40T36 192Q36 274 66 355T163 490T330 544Q436 544 535 493ZM274 450T238
411T186 312T169 192Q169 82 244 82Q276 82 304 103T361 166L402 436Q383 444 367 447T329 450Q274 450 238 411ZM432 853T462 823T493 747Q493 711 475 681T425 632T353 613Q302 614 271 644T240 720Q240 755 258 785T308 834T380 853Q432 853 462 823ZM351 787T336
772T317 729V720Q317 702 328 692T358 680Q381 680 395 695T415 738Q416 741 416 748Q416 766 405 776T375 787Q351 787 336 772Z" />
<glyph unicode="&#xe6;" glyph-name="ae" horiz-adv-x="852" d="M412 544T453 467Q483 502 530 523T633 544Q691 544 732 525T795 474T816 404Q816 302 723 257T472 197Q475 84 578 84Q613 84 646 95T716 133L764 53Q669 -15 563 -15Q498 -15 452 8T379 76Q336
27 289 6T182 -15Q109 -15 67 24T24 127Q24 208 86 261T291 315H360Q367 347 379 379Q376 409 346 427T272 446Q215 446 134 420L113 510Q205 544 301 544Q412 544 453 467ZM562 453T526 404T478 281Q585 291 636 319T687 398Q687 420 673 436T625 453Q562 453
526 404ZM229 237T195 213T160 137Q160 78 223 78Q257 78 288 97T351 155Q349 165 349 209V237H297Q229 237 195 213Z" />
<glyph unicode="&#xe7;" glyph-name="ccedilla" horiz-adv-x="471" d="M353 -8T272 -14L266 -51Q309 -55 331 -77T353 -134Q353 -163 338 -190T289 -234T204 -252Q145 -252 105 -223L144 -162Q170 -178 201 -178Q225 -179 241 -169T257 -139Q257 -121 238 -114T173
-106L197 -10Q121 6 80 62T38 208Q38 284 67 361T161 491T321 544Q420 544 484 481L420 405Q397 426 374 434T322 443Q267 443 233 406T185 313T170 201Q170 89 265 89Q294 89 319 98T377 128L426 43Q353 -8 272 -14Z" />
<glyph unicode="&#xe8;" glyph-name="egrave" horiz-adv-x="529" d="M509 302T417 256T168 195Q171 84 270 84Q306 84 339 95T408 133L457 53Q361 -15 256 -15Q150 -15 94 43T38 205Q38 285 67 362T161 492T326 544Q384 544 425 525T488 474T509 404Q509 302 417
256ZM278 288T328 318T379 398Q379 420 365 436T317 453Q255 453 220 403T173 278Q278 288 328 318ZM433 630L223 720L288 820L477 695L433 630Z" />
<glyph unicode="&#xe9;" glyph-name="eacute" horiz-adv-x="529" d="M509 302T417 256T168 195Q171 84 270 84Q306 84 339 95T408 133L457 53Q361 -15 256 -15Q150 -15 94 43T38 205Q38 285 67 362T161 492T326 544Q384 544 425 525T488 474T509 404Q509 302 417
256ZM278 288T328 318T379 398Q379 420 365 436T317 453Q255 453 220 403T173 278Q278 288 328 318ZM227 630L200 695L423 820L461 720L227 630Z" />
<glyph unicode="&#xea;" glyph-name="ecircumflex" horiz-adv-x="529" d="M509 302T417 256T168 195Q171 84 270 84Q306 84 339 95T408 133L457 53Q361 -15 256 -15Q150 -15 94 43T38 205Q38 285 67 362T161 492T326 544Q384 544 425 525T488 474T509 404Q509
302 417 256ZM278 288T328 318T379 398Q379 420 365 436T317 453Q255 453 220 403T173 278Q278 288 328 318ZM314 808H393L512 682L458 627L343 715L204 627L160 682L314 808Z" />
<glyph unicode="&#xeb;" glyph-name="edieresis" horiz-adv-x="529" d="M509 302T417 256T168 195Q171 84 270 84Q306 84 339 95T408 133L457 53Q361 -15 256 -15Q150 -15 94 43T38 205Q38 285 67 362T161 492T326 544Q384 544 425 525T488 474T509 404Q509 302
417 256ZM278 288T328 318T379 398Q379 420 365 436T317 453Q255 453 220 403T173 278Q278 288 328 318ZM260 785T277 768T295 723Q295 692 273 670T220 647Q192 647 175 665T157 710Q157 741 179 763T232 785Q260 785 277 768ZM479 785T496 768T514 723Q514 692
492 670T438 647Q411 647 394 665T376 710Q376 741 398 763T451 785Q479 785 496 768Z" />
<glyph unicode="&#xec;" glyph-name="igrave" horiz-adv-x="279" d="M39 0L113 529H240L166 0H39ZM551 630L341 720L406 820L595 695L551 630Z" />
<glyph unicode="&#xed;" glyph-name="iacute" horiz-adv-x="279" d="M39 0L113 529H240L166 0H39ZM345 630L318 695L541 820L579 720L345 630Z" />
<glyph unicode="&#xee;" glyph-name="icircumflex" horiz-adv-x="279" d="M39 0L113 529H240L166 0H39ZM432 808H511L630 682L576 627L461 715L322 627L278 682L432 808Z" />
<glyph unicode="&#xef;" glyph-name="idieresis" horiz-adv-x="279" d="M39 0L113 529H240L166 0H39ZM378 785T395 768T413 723Q413 692 391 670T338 647Q310 647 293 665T275 710Q275 741 297 763T350 785Q378 785 395 768ZM597 785T614 768T632 723Q632 692
610 670T556 647Q529 647 512 665T494 710Q494 741 516 763T569 785Q597 785 614 768Z" />
<glyph unicode="&#xf0;" glyph-name="eth" horiz-adv-x="567" d="M467 610T497 539T528 376Q528 319 520 267Q508 185 471 121T375 21T242 -15Q182 -15 135 9T62 81T35 192Q35 260 60 325T138 434T271 477Q355 477 405 424Q399 478 380 519T323 595L250 533L173
573L246 639Q201 657 152 666L186 754Q267 738 325 710L408 788L468 728L400 664Q467 610 497 539ZM304 81T341 129T392 265Q395 284 399 327Q365 384 294 384Q222 384 193 326T164 189Q164 135 186 108T249 81Q304 81 341 129Z" />
<glyph unicode="&#xf1;" glyph-name="ntilde" horiz-adv-x="573" d="M456 544T489 510T522 415Q522 399 519 381L465 0H339L391 359Q394 376 394 387Q394 416 381 427T343 439Q310 439 275 402T207 303L165 0H39L113 529H222L217 431Q253 483 300 513T397 544Q456
544 489 510ZM388 645T373 652T337 673Q314 691 299 691Q281 691 268 680T237 644L174 681Q199 727 232 755T304 784Q326 784 341 777T374 756Q386 747 394 743T411 738Q427 738 441 749T471 783L536 746Q509 698 476 671T408 644Q388 645 373 652Z" />
<glyph unicode="&#xf2;" glyph-name="ograve" horiz-adv-x="576" d="M426 544T481 485T537 323Q537 246 509 169T417 38T252 -15Q150 -15 95 44T39 208Q39 286 67 363T160 492T324 544Q426 544 481 485ZM262 447T229 407T183 309T169 198Q169 82 259 82Q315 82
347 123T393 222T406 333Q406 392 384 419T317 447Q262 447 229 407ZM440 630L230 720L295 820L484 695L440 630Z" />
<glyph unicode="&#xf3;" glyph-name="oacute" horiz-adv-x="576" d="M426 544T481 485T537 323Q537 246 509 169T417 38T252 -15Q150 -15 95 44T39 208Q39 286 67 363T160 492T324 544Q426 544 481 485ZM262 447T229 407T183 309T169 198Q169 82 259 82Q315 82
347 123T393 222T406 333Q406 392 384 419T317 447Q262 447 229 407ZM234 630L207 695L430 820L468 720L234 630Z" />
<glyph unicode="&#xf4;" glyph-name="ocircumflex" horiz-adv-x="576" d="M426 544T481 485T537 323Q537 246 509 169T417 38T252 -15Q150 -15 95 44T39 208Q39 286 67 363T160 492T324 544Q426 544 481 485ZM262 447T229 407T183 309T169 198Q169 82 259 82Q315
82 347 123T393 222T406 333Q406 392 384 419T317 447Q262 447 229 407ZM321 808H400L519 682L465 627L350 715L211 627L167 682L321 808Z" />
<glyph unicode="&#xf5;" glyph-name="otilde" horiz-adv-x="576" d="M426 544T481 485T537 323Q537 246 509 169T417 38T252 -15Q150 -15 95 44T39 208Q39 286 67 363T160 492T324 544Q426 544 481 485ZM262 447T229 407T183 309T169 198Q169 82 259 82Q315 82
347 123T393 222T406 333Q406 392 384 419T317 447Q262 447 229 407ZM381 645T366 652T330 673Q307 691 292 691Q274 691 261 680T230 644L167 681Q192 727 225 755T297 784Q319 784 334 777T367 756Q379 747 387 743T404 738Q420 738 434 749T464 783L529 746Q502
698 469 671T401 644Q381 645 366 652Z" />
<glyph unicode="&#xf6;" glyph-name="odieresis" horiz-adv-x="576" d="M426 544T481 485T537 323Q537 246 509 169T417 38T252 -15Q150 -15 95 44T39 208Q39 286 67 363T160 492T324 544Q426 544 481 485ZM262 447T229 407T183 309T169 198Q169 82 259 82Q315
82 347 123T393 222T406 333Q406 392 384 419T317 447Q262 447 229 407ZM267 785T284 768T302 723Q302 692 280 670T227 647Q199 647 182 665T164 710Q164 741 186 763T239 785Q267 785 284 768ZM486 785T503 768T521 723Q521 692 499 670T445 647Q418 647 401
665T383 710Q383 741 405 763T458 785Q486 785 503 768Z" />
<glyph unicode="&#xf7;" glyph-name="divide" horiz-adv-x="502" d="M266 178T286 157T307 106Q307 69 281 43T218 16Q187 16 167 37T147 89Q147 125 173 151T235 178Q266 178 286 157ZM332 648T352 627T373 576Q373 539 347 513T284 486Q253 486 233 507T213
559Q213 595 239 621T301 648Q332 648 352 627ZM466 383L451 281H55L70 383H466Z" />
<glyph unicode="&#xf8;" glyph-name="oslash" horiz-adv-x="576" d="M456 507Q496 479 517 432T538 323Q538 246 510 169T418 38T252 -15Q226 -15 209 -11L155 -133L62 -104L120 22Q80 50 59 97T38 208Q38 286 66 363T159 492T324 544Q349 544 368 540L422 662L516
633L456 507ZM262 447T228 407T180 309T165 198Q165 142 186 118L338 445Q326 447 317 447Q262 447 228 407ZM251 82T260 82Q315 82 349 123T397 222T411 332Q411 386 391 409L239 84Q251 82 260 82Z" />
<glyph unicode="&#xf9;" glyph-name="ugrave" horiz-adv-x="569" d="M347 0L352 87Q315 38 273 12T181 -15Q118 -15 85 19T52 116Q52 133 55 152L108 529H234L184 167Q182 156 182 138Q182 110 193 99T227 86Q262 86 293 114T356 190L404 529H530L456 0H347ZM438
630L228 720L293 820L482 695L438 630Z" />
<glyph unicode="&#xfa;" glyph-name="uacute" horiz-adv-x="569" d="M347 0L352 87Q315 38 273 12T181 -15Q118 -15 85 19T52 116Q52 133 55 152L108 529H234L184 167Q182 156 182 138Q182 110 193 99T227 86Q262 86 293 114T356 190L404 529H530L456 0H347ZM232
630L205 695L428 820L466 720L232 630Z" />
<glyph unicode="&#xfb;" glyph-name="ucircumflex" horiz-adv-x="569" d="M347 0L352 87Q315 38 273 12T181 -15Q118 -15 85 19T52 116Q52 133 55 152L108 529H234L184 167Q182 156 182 138Q182 110 193 99T227 86Q262 86 293 114T356 190L404 529H530L456 0H347ZM319
808H398L517 682L463 627L348 715L209 627L165 682L319 808Z" />
<glyph unicode="&#xfc;" glyph-name="udieresis" horiz-adv-x="569" d="M347 0L352 87Q315 38 273 12T181 -15Q118 -15 85 19T52 116Q52 133 55 152L108 529H234L184 167Q182 156 182 138Q182 110 193 99T227 86Q262 86 293 114T356 190L404 529H530L456 0H347ZM266
785T283 768T301 723Q301 692 279 670T226 647Q198 647 181 665T163 710Q163 741 185 763T238 785Q266 785 283 768ZM485 785T502 768T520 723Q520 692 498 670T444 647Q417 647 400 665T382 710Q382 741 404 763T457 785Q485 785 502 768Z" />
<glyph unicode="&#xfd;" glyph-name="yacute" horiz-adv-x="498" d="M252 -100T178 -154T-9 -218L-13 -125Q63 -113 102 -85T172 2L130 0L38 529H170L223 88L402 529H534L295 -3Q252 -100 178 -154ZM198 630L171 695L394 820L432 720L198 630Z" />
<glyph unicode="&#xfe;" glyph-name="thorn" horiz-adv-x="588" d="M459 544T501 490T543 337Q543 253 515 173T424 39T260 -15Q208 -15 165 3L136 -205L8 -220L143 741L270 755L232 481Q301 544 381 544Q459 544 501 490ZM311 81T346 121T397 220T413 339Q413
448 335 448Q303 448 275 430T218 379L179 96Q200 88 217 85T258 81Q311 81 346 121Z" />
<glyph unicode="&#xff;" glyph-name="ydieresis" horiz-adv-x="498" d="M252 -100T178 -154T-9 -218L-13 -125Q63 -113 102 -85T172 2L130 0L38 529H170L223 88L402 529H534L295 -3Q252 -100 178 -154ZM231 785T248 768T266 723Q266 692 244 670T191 647Q163 647
146 665T128 710Q128 741 150 763T203 785Q231 785 248 768ZM450 785T467 768T485 723Q485 692 463 670T409 647Q382 647 365 665T347 710Q347 741 369 763T422 785Q450 785 467 768Z" />
<glyph unicode="&#x2013;" glyph-name="endash" horiz-adv-x="512" d="M500 364L486 262H25L39 364H500Z" />
<glyph unicode="&#x2014;" glyph-name="emdash" horiz-adv-x="781" d="M769 364L755 262H25L39 364H769Z" />
<glyph unicode="&#x2018;" glyph-name="quoteleft" horiz-adv-x="219" d="M116 474T97 492T78 537Q78 558 84 575T106 618L194 760H266L201 603Q227 583 227 550Q227 518 204 496T146 474Q116 474 97 492Z" />
<glyph unicode="&#x2019;" glyph-name="quoteright" horiz-adv-x="231" d="M200 759T219 741T238 696Q238 675 232 658T210 615L122 473H50L115 630Q89 650 89 683Q89 715 112 737T170 759Q200 759 219 741Z" />
<glyph unicode="&#x201a;" glyph-name="quotesinglbase" horiz-adv-x="232" d="M112 126T131 108T150 63Q150 42 144 25T122 -18L34 -160H-38L27 -3Q1 17 1 50Q1 82 24 104T82 126Q112 126 131 108Z" />
<glyph unicode="&#x201c;" glyph-name="quotedblleft" horiz-adv-x="412" d="M116 474T97 492T78 538Q78 559 84 575T107 619L195 761H267L202 604Q228 585 228 550Q228 518 205 496T147 474Q116 474 97 492ZM309 474T290 492T271 538Q271 559 277 575T300 619L388
761H460L395 604Q421 585 421 550Q421 518 398 496T340 474Q309 474 290 492Z" />
<glyph unicode="&#x201d;" glyph-name="quotedblright" horiz-adv-x="412" d="M202 761T221 743T240 697Q240 677 234 660T212 616L124 474H52L116 631Q91 651 91 685Q91 717 114 739T172 761Q202 761 221 743ZM395 761T414 743T433 697Q433 676 427 660T404 616L316
474H244L309 631Q283 651 283 685Q283 717 306 739T364 761Q395 761 414 743Z" />
<glyph unicode="&#x201e;" glyph-name="quotedblbase" horiz-adv-x="412" d="M112 126T131 108T150 63Q150 42 144 25T122 -18L34 -160H-38L27 -3Q1 17 1 50Q1 82 24 104T82 126Q112 126 131 108ZM304 126T323 108T342 63Q342 42 336 25T314 -18L226 -160H154L219
-3Q193 17 193 50Q193 82 216 104T274 126Q304 126 323 108Z" />
<glyph unicode="&#x2022;" glyph-name="bullet" horiz-adv-x="328" d="M238 468T269 437T300 357Q300 318 281 286T230 234T160 215Q112 215 81 246T50 326Q50 365 69 397T120 449T189 468Q238 468 269 437Z" />
<glyph unicode="&#x2039;" glyph-name="guilsinglleft" horiz-adv-x="342" d="M173 286L274 77L192 25L40 244L51 327L259 547L332 494L173 286Z" />
<glyph unicode="&#x203a;" glyph-name="guilsinglright" horiz-adv-x="343" d="M298 244L89 25L16 77L175 286L74 494L156 547L308 327L298 244Z" />
</font>
</defs>
</svg>
