<?xml version="1.0" standalone="no"?>
<!DOCTYPE svg PUBLIC "-//W3C//DTD SVG 1.1//EN" "http://www.w3.org/Graphics/SVG/1.1/DTD/svg11.dtd">
<svg xmlns="http://www.w3.org/2000/svg">
<defs >
<font id="FiraSans" horiz-adv-x="542" ><font-face
    font-family="Fira Sans"
    units-per-em="1000"
    panose-1="2 11 8 3 5 0 0 2 0 4"
    ascent="1050"
    descent="-500"
    alphabetic="0" />
<glyph unicode=" " glyph-name="space" horiz-adv-x="237" />
<glyph unicode="!" glyph-name="exclam" horiz-adv-x="240" d="M56 255L36 693H204L184 255H56ZM158 164T184 138T211 74Q211 36 185 10T120 -17Q83 -17 57 9T30 74Q30 111 56 137T120 164Q158 164 184 138Z" />
<glyph unicode="&quot;" glyph-name="quotedbl" horiz-adv-x="439" d="M392 693L372 414H268L249 693H392ZM191 693L171 414H67L48 693H191Z" />
<glyph unicode="#" glyph-name="numbersign" horiz-adv-x="557" d="M447 248H505V143H433L414 0H283L302 143H202L183 0H52L71 143H15V248H84L110 440H52V545H124L141 676H272L255 545H355L372 676H503L486 545H542V440H472L447 248ZM241 440L215 248H316L341 440H241Z" />
<glyph unicode="$" glyph-name="dollar" horiz-adv-x="549" d="M525 122T476 69T340 -3V-161H226V-9Q94 2 9 85L90 173Q162 106 256 106Q305 106 333 128T361 188Q361 213 351 229T315 259T240 288Q130 323 84 371T37 494Q37 569 89 619T226 683V830H340V682Q437
666 506 601L433 515Q367 571 288 571Q246 571 222 554T198 506Q198 484 208 470T246 444T327 414Q428 382 476 334T525 200Q525 122 476 69Z" />
<glyph unicode="%" glyph-name="percent" horiz-adv-x="859" d="M248 -40L151 22L614 720L711 658L248 -40ZM257 690T297 668T361 605T385 510Q385 456 362 415T298 352T207 330Q157 330 117 352T53 415T29 510Q29 564 52 604T116 667T207 690Q257 690 297 668ZM142
595T142 510Q142 473 156 449T207 425Q271 425 271 510Q271 595 207 595Q142 595 142 510ZM702 342T742 320T806 258T830 163Q830 109 807 68T743 5T652 -17Q602 -17 561 5T497 68T473 163Q473 217 496 257T561 320T652 342Q702 342 742 320ZM587 247T587 163Q587
126 601 102T652 77Q716 77 716 163Q716 247 652 247Q587 247 587 163Z" />
<glyph unicode="&amp;" glyph-name="ampersand" horiz-adv-x="790" d="M379 710T427 689T501 632T527 550Q527 491 494 448T395 361L530 234Q559 294 578 378L710 339Q672 229 618 153L739 46L604 -17L526 58Q433 -17 307 -17Q234 -17 178 7T91 75T60 177Q60 237
92 282T195 373Q141 425 120 461T99 544Q99 589 123 626T195 687T313 710Q379 710 427 689ZM285 608T268 591T251 544Q251 518 263 497T308 444Q343 467 359 491T376 546Q376 575 360 591T315 608Q285 608 268 591ZM254 265T240 241T225 186Q225 145 255 120T334
95Q397 95 447 133L285 288Q254 265 240 241Z" />
<glyph unicode="&apos;" glyph-name="quotesingle" horiz-adv-x="238" d="M191 693L171 414H67L48 693H191Z" />
<glyph unicode="(" glyph-name="parenleft" horiz-adv-x="325" d="M242 689T210 588T178 350Q178 214 210 113T313 -91L212 -159Q147 -69 108 -4T44 150T18 350Q18 462 43 550T108 703T212 859L313 791Q242 689 210 588Z" />
<glyph unicode=")" glyph-name="parenright" horiz-adv-x="325" d="M178 768T216 703T280 550T306 350Q306 238 281 150T217 -3T113 -159L12 -91Q83 12 115 113T147 350Q147 485 115 586T12 791L113 859Q178 768 216 703Z" />
<glyph unicode="*" glyph-name="asterisk" horiz-adv-x="449" d="M401 410L291 330L224 457L159 329L49 409L149 512L8 535L49 661L177 598L157 742H293L272 597L399 662L441 535L300 512L401 410Z" />
<glyph unicode="+" glyph-name="plus" horiz-adv-x="531" d="M482 393V271H331V115H200V271H48V393H200V549H331V393H482Z" />
<glyph unicode="," glyph-name="comma" horiz-adv-x="240" d="M158 164T184 138T210 74Q210 52 203 30T178 -32L115 -177H26L69 -1Q50 12 40 31T29 74Q29 112 55 138T120 164Q158 164 184 138Z" />
<glyph unicode="-" glyph-name="hyphen" horiz-adv-x="407" d="M363 374V252H44V374H363Z" />
<glyph unicode="." glyph-name="period" horiz-adv-x="240" d="M157 164T183 138T210 74Q210 36 184 10T120 -17Q82 -17 56 9T29 74Q29 111 55 137T120 164Q157 164 183 138Z" />
<glyph unicode="/" glyph-name="slash" horiz-adv-x="520" d="M212 -112L73 -80L309 816L447 785L212 -112Z" />
<glyph unicode="0" glyph-name="zero" horiz-adv-x="585" d="M417 690T482 599T548 337Q548 167 483 75T293 -17Q169 -17 104 75T38 337Q38 508 103 599T293 690Q417 690 482 599ZM259 573T239 551T210 478T200 337Q200 247 209 196T239 122T293 100Q327 100 347
121T376 194T386 337Q386 428 377 479T347 552T293 573Q259 573 239 551Z" />
<glyph unicode="1" glyph-name="one" horiz-adv-x="464" d="M227 0V522L82 433L13 538L241 676H382V0H227Z" />
<glyph unicode="2" glyph-name="two" horiz-adv-x="517" d="M311 690T363 664T443 594T471 497Q471 443 449 394T371 282T208 121H485L469 0H29V112Q152 233 208 294T286 397T309 481Q309 522 286 545T222 569Q186 569 158 553T100 499L6 573Q48 628 106 659T238
690Q311 690 363 664Z" />
<glyph unicode="3" glyph-name="three" horiz-adv-x="520" d="M310 690T360 667T437 605T464 518Q464 457 430 416T332 357Q400 350 443 309T486 191Q486 134 456 87T368 11T228 -17Q80 -17 -4 85L83 169Q115 134 147 119T219 103Q266 103 295 129T324 201Q324
253 297 275T214 298H158L175 407H214Q259 407 285 430T311 495Q311 532 287 552T221 573Q150 573 89 514L11 599Q107 690 239 690Q310 690 360 667Z" />
<glyph unicode="4" glyph-name="four" horiz-adv-x="565" d="M468 146V0H314L313 146H28V251L220 693L354 643L191 264H315L332 424H468V264H544V146H468Z" />
<glyph unicode="5" glyph-name="five" horiz-adv-x="536" d="M209 563V421Q256 443 309 443Q365 443 409 417T478 341T503 223Q503 152 471 98T378 13T238 -17Q101 -17 13 85L102 167Q156 102 232 102Q284 102 312 133T341 222Q341 335 246 335Q226 335 207 330T165
311H58V676H472L454 563H209Z" />
<glyph unicode="6" glyph-name="six" horiz-adv-x="564" d="M401 455T445 429T514 352T539 231Q539 162 509 106T424 16T294 -17Q164 -17 101 70T38 309Q38 423 73 509T175 642T332 690Q419 690 486 645L428 551Q383 577 336 577Q279 577 244 529T202 392Q262
455 345 455Q401 455 445 429ZM338 96T359 131T381 229Q381 292 361 319T301 346Q247 346 202 293Q204 186 225 141T296 96Q338 96 359 131Z" />
<glyph unicode="7" glyph-name="seven" horiz-adv-x="468" d="M202 -16L59 32L286 557H13V676H450V569L202 -16Z" />
<glyph unicode="8" glyph-name="eight" horiz-adv-x="581" d="M485 330T518 286T551 183Q551 128 520 83T428 10T287 -17Q208 -17 150 9T60 80T29 180Q29 293 155 348Q56 407 56 508Q56 562 86 603T169 667T291 690Q394 690 459 644T525 516Q525 471 499 432T417
363Q485 330 518 286ZM254 583T232 563T209 506Q209 472 228 451T291 411L313 403Q346 426 359 450T372 508Q372 542 352 562T292 583Q254 583 232 563ZM340 96T366 120T393 184Q393 225 370 248T289 293L255 305Q188 266 188 188Q188 146 216 121T292 96Q340 96
366 120Z" />
<glyph unicode="9" glyph-name="nine" horiz-adv-x="560" d="M399 690T464 619T529 428Q529 291 485 201T348 57T108 -28L76 82Q208 114 273 162T359 298Q305 234 219 234Q166 234 122 261T52 339T26 457Q26 526 59 579T149 661T277 690Q399 690 464 619ZM297
345T322 360T367 404Q368 499 348 538T277 577Q234 577 210 548T185 462Q185 400 207 373T268 345Q297 345 322 360Z" />
<glyph unicode=":" glyph-name="colon" horiz-adv-x="240" d="M157 164T183 138T210 74Q210 36 184 10T120 -17Q82 -17 56 9T29 74Q29 111 55 137T120 164Q157 164 183 138ZM157 509T183 483T210 419Q210 381 184 355T120 328Q82 328 56 354T29 419Q29 456 55
482T120 509Q157 509 183 483Z" />
<glyph unicode=";" glyph-name="semicolon" horiz-adv-x="240" d="M158 164T184 138T210 74Q210 52 203 30T178 -32L115 -177H26L69 -1Q50 12 40 31T29 74Q29 112 55 138T120 164Q158 164 184 138ZM157 509T183 483T210 419Q210 381 184 355T120 328Q82 328 56
354T29 419Q29 456 55 482T120 509Q157 509 183 483Z" />
<glyph unicode="&lt;" glyph-name="less" horiz-adv-x="519" d="M168 333L484 205L434 90L34 263V402L434 576L484 465L168 333Z" />
<glyph unicode="=" glyph-name="equal" horiz-adv-x="519" d="M470 497V375H48V497H470ZM470 544V422H48V544H470Z" />
<glyph unicode="&gt;" glyph-name="greater" horiz-adv-x="519" d="M484 263L84 90L34 205L350 333L34 465L84 576L484 402V263Z" />
<glyph unicode="?" glyph-name="question" horiz-adv-x="481" d="M318 710T367 688T442 627T467 543Q467 502 453 473T419 426T365 384Q326 357 307 336T287 280V255H143V286Q143 333 158 365T193 417T245 457Q275 477 288 492T302 529Q302 556 284 571T232 586Q169
586 115 525L14 603Q105 710 248 710Q318 710 367 688ZM254 164T280 138T307 74Q307 36 281 10T217 -17Q180 -17 154 9T127 74Q127 111 153 137T217 164Q254 164 280 138Z" />
<glyph unicode="@" glyph-name="at" horiz-adv-x="1020" d="M569 503T614 492T700 458V210Q701 148 711 125T747 102Q786 102 808 150T830 314Q830 448 754 521T526 595Q421 595 346 551T231 427T191 242Q191 80 277 -12T527 -105Q577 -105 630 -96T724 -71L761
-180Q712 -199 650 -210T526 -222Q382 -222 274 -165T107 -3T48 242Q48 376 109 483T280 650T527 710Q664 710 765 656T919 511T972 316Q972 226 945 155T869 44T754 4Q698 4 664 34T620 106Q601 61 565 35T477 8Q386 8 340 69T294 233Q294 357 355 430T527 503Q569
503 614 492ZM543 107T566 156V394Q543 403 522 403Q481 403 459 364T437 232Q437 164 451 136T498 107Q543 107 566 156Z" />
<glyph unicode="A" glyph-name="A" horiz-adv-x="590" d="M192 149L157 0H-13L196 693H395L604 0H430L395 149H192ZM293 574L220 268H366L293 574Z" />
<glyph unicode="B" glyph-name="B" horiz-adv-x="617" d="M503 354T546 316T590 202Q590 91 511 46T288 0H65V693H261Q407 693 484 652T561 516Q561 455 525 418T434 367Q503 354 546 316ZM229 416H290Q394 416 394 500Q394 542 366 559T277 577H229V416ZM354
119T387 138T421 211Q421 307 301 307H229V119H289Q354 119 387 138Z" />
<glyph unicode="C" glyph-name="C" horiz-adv-x="575" d="M413 710T463 691T559 634L479 539Q421 589 355 589Q286 589 246 530T205 348Q205 227 245 169T358 110Q395 110 425 125T493 168L567 72Q529 34 473 9T350 -17Q254 -17 183 25T73 149T33 348Q33 461 73
543T184 667T345 710Q413 710 463 691Z" />
<glyph unicode="D" glyph-name="D" horiz-adv-x="651" d="M421 693T519 620T618 350Q618 157 522 79T273 0H65V693H258Q421 693 519 620ZM229 119H283Q364 119 406 169T448 350Q448 439 427 488T370 555T281 574H229V119Z" />
<glyph unicode="E" glyph-name="E" horiz-adv-x="526" d="M229 576V410H442V295H229V118H490V0H65V693H490L473 576H229Z" />
<glyph unicode="F" glyph-name="F" horiz-adv-x="487" d="M229 576V392H431V275H229V0H65V693H478L461 576H229Z" />
<glyph unicode="G" glyph-name="G" horiz-adv-x="645" d="M499 710T596 625L511 536Q476 565 445 578T372 591Q295 591 249 531T203 347Q203 214 238 159T347 103Q399 103 441 126V283H351L335 399H600V56Q546 21 481 2T348 -17Q192 -17 113 75T33 347Q33 461
76 543T195 667T364 710Q499 710 596 625Z" />
<glyph unicode="H" glyph-name="H" horiz-adv-x="666" d="M229 297V0H65V693H229V425H437V693H601V0H437V297H229Z" />
<glyph unicode="I" glyph-name="I" horiz-adv-x="294" d="M65 0V693H229V0H65Z" />
<glyph unicode="J" glyph-name="J" horiz-adv-x="317" d="M256 22T227 -32T149 -116T33 -169L-11 -53Q33 -36 55 -14T84 37T92 111V693H256V105Q256 22 227 -32Z" />
<glyph unicode="K" glyph-name="K" horiz-adv-x="633" d="M65 0V693H229V0H65ZM645 0H455L234 370L454 693H627L406 382L645 0Z" />
<glyph unicode="L" glyph-name="L" horiz-adv-x="513" d="M499 130L482 0H65V693H229V130H499Z" />
<glyph unicode="M" glyph-name="M" horiz-adv-x="793" d="M592 0L580 271Q575 371 575 449Q575 505 578 554L471 73H316L202 554Q208 466 208 386Q208 329 205 269L193 0H33L85 693H292L396 223L493 693H701L753 0H592Z" />
<glyph unicode="N" glyph-name="N" horiz-adv-x="663" d="M390 0L190 537Q200 458 205 398T211 254V0H65V693H269L474 155Q452 292 452 413V693H599V0H390Z" />
<glyph unicode="O" glyph-name="O" horiz-adv-x="691" d="M493 710T575 615T658 347Q658 234 621 152T513 27T345 -17Q248 -17 178 26T71 150T33 347Q33 459 70 541T178 666T345 710Q493 710 575 615ZM274 590T240 533T205 347Q205 219 240 161T345 103Q417 103
451 160T486 347Q486 476 451 533T345 590Q274 590 240 533Z" />
<glyph unicode="P" glyph-name="P" horiz-adv-x="600" d="M426 693T502 636T578 467Q578 350 504 291T304 231H229V0H65V693H289Q426 693 502 636ZM348 349T378 376T409 467Q409 576 287 576H229V349H290Q348 349 378 376Z" />
<glyph unicode="Q" glyph-name="Q" horiz-adv-x="690" d="M560 45T608 30T700 -18L601 -147Q544 -83 484 -49T335 -14Q242 -14 174 28T70 152T33 347Q33 459 70 541T178 666T345 710Q493 710 575 615T658 347Q658 135 495 45Q560 45 608 30ZM205 219T240 161T345
103Q417 103 451 160T486 347Q486 476 451 533T345 590Q274 590 240 533T205 347Q205 219 240 161Z" />
<glyph unicode="R" glyph-name="R" horiz-adv-x="617" d="M229 265V0H65V693H292Q434 693 505 641T577 482Q577 415 545 371T444 295L620 0H435L293 265H229ZM298 378Q353 378 380 403T408 482Q408 532 379 555T288 578H229V378H298Z" />
<glyph unicode="S" glyph-name="S" horiz-adv-x="572" d="M366 710T423 688T528 621L451 532Q381 590 300 590Q257 590 232 573T207 522Q207 499 218 485T257 457T341 426Q447 392 497 343T547 202Q547 137 514 88T419 11T272 -17Q187 -17 122 10T9 82L93 174Q170
105 267 105Q318 105 347 127T377 190Q377 216 366 233T328 265T250 295Q135 330 87 381T38 510Q38 570 70 615T159 685T288 710Q366 710 423 688Z" />
<glyph unicode="T" glyph-name="T" horiz-adv-x="540" d="M352 567V0H188V567H9V693H539L523 567H352Z" />
<glyph unicode="U" glyph-name="U" horiz-adv-x="651" d="M596 159T566 103T474 15T325 -17Q193 -17 124 50T55 230V693H219V237Q219 170 244 138T325 105Q381 105 406 137T432 237V693H596V230Q596 159 566 103Z" />
<glyph unicode="V" glyph-name="V" horiz-adv-x="570" d="M187 0L-13 693H160L292 128L416 693H584L391 0H187Z" />
<glyph unicode="W" glyph-name="W" horiz-adv-x="847" d="M508 0L422 529L331 0H123L9 693H173L242 124L338 693H510L600 124L681 693H837L721 0H508Z" />
<glyph unicode="X" glyph-name="X" horiz-adv-x="581" d="M406 0L287 264L170 0H-4L190 368L11 693H189L289 471L394 693H568L385 374L585 0H406Z" />
<glyph unicode="Y" glyph-name="Y" horiz-adv-x="594" d="M379 0H215V259L-7 693H172L300 388L428 693H601L379 260V0Z" />
<glyph unicode="Z" glyph-name="Z" horiz-adv-x="544" d="M211 131H517L501 0H18V123L325 566H49V693H512V569L211 131Z" />
<glyph unicode="[" glyph-name="bracketleft" horiz-adv-x="324" d="M184 705V-6H299V-123H34V823H299V705H184Z" />
<glyph unicode="\" glyph-name="backslash" horiz-adv-x="520" d="M308 -112L73 785L211 816L447 -80L308 -112Z" />
<glyph unicode="]" glyph-name="bracketright" horiz-adv-x="324" d="M25 -123V-5H140V705H25V823H290V-123H25Z" />
<glyph unicode="^" glyph-name="asciicircum" horiz-adv-x="559" d="M386 527L278 726L175 527H18L207 844H351L540 527H386Z" />
<glyph unicode="_" glyph-name="underscore" horiz-adv-x="520" d="M510 -47V-171H10V-47H510Z" />
<glyph unicode="`" glyph-name="grave" horiz-adv-x="340" d="M266 622L30 717L92 835L310 703L266 622Z" />
<glyph unicode="a" glyph-name="a" horiz-adv-x="548" d="M484 124T492 110T520 89L487 -14Q438 -10 408 7T359 62Q307 -17 199 -17Q120 -17 73 29T26 149Q26 236 90 282T275 328H329V351Q329 398 309 415T239 433Q213 433 176 426T100 405L64 509Q114 528 166
538T264 548Q378 548 431 501T484 360V154Q484 124 492 110ZM271 96T292 109T329 146V241H290Q236 241 210 222T183 163Q183 131 199 114T245 96Q271 96 292 109Z" />
<glyph unicode="b" glyph-name="b" horiz-adv-x="597" d="M457 548T508 474T560 265Q560 183 535 119T462 19T349 -17Q305 -17 270 0T210 51L202 0H62V742L220 759V477Q243 509 281 528T360 548Q457 548 508 474ZM396 98T396 265Q396 359 374 395T311 432Q257
432 220 370V150Q252 98 304 98Q396 98 396 265Z" />
<glyph unicode="c" glyph-name="c" horiz-adv-x="479" d="M347 548T391 532T474 483L405 388Q357 427 305 427Q252 427 225 388T198 262Q198 178 225 143T303 108Q331 108 353 117T402 147L474 46Q395 -17 295 -17Q214 -17 155 17T64 114T32 261Q32 345 64 410T155
511T292 548Q347 548 391 532Z" />
<glyph unicode="d" glyph-name="d" horiz-adv-x="600" d="M538 0H398L390 62Q366 26 328 5T239 -17Q140 -17 89 59T37 267Q37 349 63 412T140 512T257 548Q292 548 323 535T380 498V759L538 742V0ZM342 99T380 158V388Q361 410 342 421T298 433Q253 433 227 393T201
266Q201 173 223 136T289 99Q342 99 380 158Z" />
<glyph unicode="e" glyph-name="e" horiz-adv-x="554" d="M525 243T522 219H194Q201 152 231 125T314 98Q346 98 376 109T441 145L506 57Q413 -17 299 -17Q170 -17 101 59T32 263Q32 344 61 408T146 510T280 548Q395 548 460 476T525 276Q525 243 522 219ZM370
321Q368 443 284 443Q243 443 221 414T193 314H370V321Z" />
<glyph unicode="f" glyph-name="f" horiz-adv-x="356" d="M271 642T256 626T241 572V531H366L349 421H241V0H83V421H3V531H83V578Q83 658 135 708T286 759Q365 759 431 725L388 622Q348 642 305 642Q271 642 256 626Z" />
<glyph unicode="g" glyph-name="g" horiz-adv-x="551" d="M499 479T398 479Q450 457 474 425T498 342Q498 291 471 251T394 187T275 164Q243 164 214 170Q206 166 202 158T197 140Q197 125 208 117T255 108H335Q396 108 442 88T513 33T538 -46Q538 -129 467 -175T260
-222Q163 -222 107 -202T29 -144T6 -51H148Q148 -75 157 -89T192 -110T264 -117Q329 -117 354 -102T379 -57Q379 -33 360 -19T303 -5H226Q144 -5 104 24T63 100Q63 129 80 156T126 202Q76 229 54 265T31 354Q31 443 95 495T264 548Q344 546 399 564T514 617L551
500Q499 479 398 479ZM231 444T210 421T188 356Q188 313 209 290T268 266Q307 266 327 289T348 358Q348 444 268 444Q231 444 210 421Z" />
<glyph unicode="h" glyph-name="h" horiz-adv-x="577" d="M442 548T481 506T520 388V0H362V361Q362 401 349 416T312 432Q264 432 220 364V0H62V742L220 758V475Q253 512 290 530T373 548Q442 548 481 506Z" />
<glyph unicode="i" glyph-name="i" horiz-adv-x="282" d="M62 0V531H220V0H62ZM181 811T207 786T234 721Q234 682 208 657T140 631Q99 631 73 656T47 721Q47 760 73 785T140 811Q181 811 207 786Z" />
<glyph unicode="j" glyph-name="j" horiz-adv-x="281" d="M219 -23T193 -77T121 -163T6 -221L-47 -106Q-8 -88 14 -71T48 -26T61 50V531H219V60Q219 -23 193 -77ZM181 811T207 786T234 721Q234 682 208 657T140 631Q99 631 73 656T47 721Q47 760 73 785T140 811Q181
811 207 786Z" />
<glyph unicode="k" glyph-name="k" horiz-adv-x="552" d="M62 0V742L220 759V0H62ZM561 0H383L225 290L387 531H548L387 298L561 0Z" />
<glyph unicode="l" glyph-name="l" horiz-adv-x="297" d="M215 108T242 108Q256 108 268 113L299 1Q255 -17 197 -17Q130 -17 94 21T57 133V742L215 759V149Q215 108 242 108Z" />
<glyph unicode="m" glyph-name="m" horiz-adv-x="845" d="M712 548T750 506T788 388V0H630V361Q630 432 585 432Q560 432 541 415T504 363V0H346V361Q346 432 301 432Q277 432 258 415T220 363V0H62V531H200L211 469Q242 509 279 528T365 548Q409 548 441 526T490
464Q522 506 560 527T649 548Q712 548 750 506Z" />
<glyph unicode="n" glyph-name="n" horiz-adv-x="577" d="M442 548T481 506T520 388V0H362V361Q362 401 350 416T312 432Q264 432 220 363V0H62V531H200L211 468Q246 508 285 528T373 548Q442 548 481 506Z" />
<glyph unicode="o" glyph-name="o" horiz-adv-x="584" d="M414 548T483 474T552 265Q552 180 521 117T431 18T292 -17Q171 -17 102 57T32 266Q32 351 63 414T153 513T292 548Q414 548 483 474ZM244 432T220 392T196 266Q196 179 219 139T292 99Q340 99 364 139T388
265Q388 352 365 392T292 432Q244 432 220 392Z" />
<glyph unicode="p" glyph-name="p" horiz-adv-x="597" d="M461 548T510 475T560 267Q560 185 535 121T461 20T349 -17Q269 -17 220 39V-205L62 -222V531H201L209 472Q240 511 279 529T359 548Q461 548 510 475ZM396 99T396 265Q396 359 375 395T309 432Q284 432
261 416T220 370V146Q252 99 301 99Q396 99 396 265Z" />
<glyph unicode="q" glyph-name="q" horiz-adv-x="595" d="M533 -222L375 -205V51Q321 -17 234 -17Q135 -17 84 59T32 267Q32 349 58 412T135 512T252 548Q330 548 387 486L395 531H533V-222ZM337 99T375 158V388Q356 410 337 421T293 433Q248 433 222 393T196
266Q196 173 218 136T284 99Q337 99 375 158Z" />
<glyph unicode="r" glyph-name="r" horiz-adv-x="401" d="M379 546T403 539L378 386Q348 393 330 393Q284 393 259 361T220 265V0H62V531H200L213 429Q231 484 267 515T350 546Q379 546 403 539Z" />
<glyph unicode="s" glyph-name="s" horiz-adv-x="483" d="M306 548T356 531T444 483L386 393Q322 435 260 435Q225 435 208 425T191 395Q191 380 198 371T229 351T300 327Q383 303 423 265T464 158Q464 104 433 65T348 4T228 -17Q161 -17 104 4T6 62L84 149Q114
124 150 110T223 96Q260 96 280 109T301 145Q301 164 293 175T262 196T189 220Q110 243 71 284T32 386Q32 432 58 468T134 526T249 548Q306 548 356 531Z" />
<glyph unicode="t" glyph-name="t" horiz-adv-x="386" d="M366 5T328 -6T251 -17Q77 -16 77 175V421H2V531H77V646L235 664V531H357L340 421H235V177Q235 140 247 124T285 108Q313 108 342 126L395 25Q366 5 328 -6Z" />
<glyph unicode="u" glyph-name="u" horiz-adv-x="572" d="M373 0L366 67Q308 -17 205 -17Q132 -17 95 27T57 150V531H215V170Q215 131 227 116T266 100Q316 100 352 162V531H510V0H373Z" />
<glyph unicode="v" glyph-name="v" horiz-adv-x="513" d="M165 0L-6 531H166L260 120L358 531H519L352 0H165Z" />
<glyph unicode="w" glyph-name="w" horiz-adv-x="749" d="M445 0L374 390L304 0H117L4 531H164L219 118L302 531H456L529 118L593 531H744L634 0H445Z" />
<glyph unicode="x" glyph-name="x" horiz-adv-x="512" d="M343 0L251 199L161 0H-11L160 279L6 531H183L257 361L328 531H496L351 284L522 0H343Z" />
<glyph unicode="y" glyph-name="y" horiz-adv-x="518" d="M323 -104T251 -159T56 -222L39 -111Q115 -101 151 -77T210 0H156L-6 531H162L257 101L361 531H524L355 -1Q323 -104 251 -159Z" />
<glyph unicode="z" glyph-name="z" horiz-adv-x="459" d="M196 120H441L427 0H13V112L254 412H34V531H436V420L196 120Z" />
<glyph unicode="{" glyph-name="braceleft" horiz-adv-x="324" d="M254 730T238 717T222 670V484Q222 421 197 392T118 349Q170 338 196 309T222 216V30Q222 -3 238 -16T298 -30V-140Q210 -140 161 -122T93 -68T74 25V204Q74 249 61 267T9 285V414Q47 414 60 432T74
496V675Q74 733 93 768T161 822T298 840V730Q254 730 238 717Z" />
<glyph unicode="|" glyph-name="bar" horiz-adv-x="376" d="M115 -105V810H262V-105H115Z" />
<glyph unicode="}" glyph-name="braceright" horiz-adv-x="324" d="M114 840T162 822T230 769T249 675V496Q249 451 263 433T314 414V285Q277 285 263 267T249 204V25Q249 -32 230 -67T163 -121T26 -140V-30Q69 -30 85 -17T101 30V216Q101 278 127 308T206 349Q152
363 127 392T102 484V670Q102 703 86 716T26 730V840Q114 840 162 822Z" />
<glyph unicode="~" glyph-name="asciitilde" horiz-adv-x="514" d="M211 410T234 401T287 373Q308 361 319 356T345 350Q369 350 383 363T411 403L498 357Q470 300 433 266T338 232Q304 232 280 242T227 270Q208 282 196 287T170 293Q146 293 132 279T103 237L16
283Q44 340 82 375T177 410Q211 410 234 401Z" />
<glyph unicode="&#xa0;" glyph-name="nbspace" horiz-adv-x="237" />
<glyph unicode="&#xa1;" glyph-name="exclamdown" horiz-adv-x="240" d="M158 509T184 483T211 419Q211 382 185 356T120 329Q83 329 57 355T30 419Q30 456 56 482T120 509Q158 509 184 483ZM37 -205L57 235H184L205 -205H37Z" />
<glyph unicode="&#xa2;" glyph-name="cent" horiz-adv-x="479" d="M417 0T346 -13V-161H232V-11Q138 8 85 80T32 261Q32 372 86 447T233 542V691H346V544Q415 533 474 483L405 388Q357 427 305 427Q252 427 225 388T198 262Q198 178 225 143T303 108Q331 108 353
117T402 147L474 46Q417 0 346 -13Z" />
<glyph unicode="&#xa3;" glyph-name="sterling" horiz-adv-x="551" d="M266 196T253 169T202 120H509L491 0H28V114Q65 125 82 140T105 176T111 233V311H43V393H111V482Q111 575 166 632T324 690Q392 690 441 666T528 590L431 519Q411 548 390 560T340 572Q266
572 266 481V393H451V311H266V241Q266 196 253 169Z" />
<glyph unicode="&#xa4;" glyph-name="currency" horiz-adv-x="560" d="M501 276T468 223L543 148L474 78L396 154Q346 125 280 125Q215 125 165 154L87 78L17 148L94 224Q61 277 61 342Q61 405 93 458L17 536L87 606L165 528Q217 558 280 558Q344 558 396 528L474
606L543 536L468 460Q501 407 501 342Q501 276 468 223ZM328 231T352 260T377 342Q377 395 353 423T281 452Q233 452 208 423T183 342Q183 289 208 260T281 231Q328 231 352 260Z" />
<glyph unicode="&#xa5;" glyph-name="yen" horiz-adv-x="568" d="M497 352V270H364V198H497V116H364V0H206V116H74V198H206V270H74V352H170L-7 676H161L288 395L413 676H576L399 352H497Z" />
<glyph unicode="&#xa6;" glyph-name="brokenbar" horiz-adv-x="376" d="M115 443V810H262V443H115ZM115 -105V262H262V-105H115Z" />
<glyph unicode="&#xa7;" glyph-name="section" horiz-adv-x="550" d="M448 162T461 137T474 76Q474 29 447 -7T369 -63T252 -83Q140 -83 61 -29L111 68Q177 26 244 26Q282 26 302 37T323 70Q323 87 315 98T282 120T204 148Q127 172 90 205T53 298Q53 337 74 368T131
422Q103 443 91 468T78 529Q78 575 104 611T180 668T293 689Q346 689 396 674T486 633L433 542Q370 580 301 580Q265 580 247 568T228 535Q228 518 236 507T268 485T344 458Q421 434 459 400T497 306Q497 266 476 235T419 182Q448 162 461 137ZM334 224Q346 239
352 255T359 285Q359 311 339 327T261 362L212 380Q191 352 191 321Q191 295 207 280T268 249L334 224Z" />
<glyph unicode="&#xa8;" glyph-name="dieresis" horiz-adv-x="456" d="M146 799T169 776T193 720Q193 687 170 664T112 641Q78 641 55 664T31 720Q31 753 54 776T112 799Q146 799 169 776ZM378 799T401 776T425 720Q425 687 402 664T344 641Q310 641 287 664T263
720Q263 753 286 776T344 799Q378 799 401 776Z" />
<glyph unicode="&#xa9;" glyph-name="copyright" horiz-adv-x="810" d="M499 766T576 722T698 601T743 432Q743 340 698 264T576 144T406 99Q313 99 236 143T113 264T67 432Q67 524 112 600T235 721T406 766Q499 766 576 722ZM336 687T280 653T191 561T159 432Q159
362 191 304T279 213T406 179Q475 179 531 212T620 304T652 432Q652 502 620 560T532 653T406 687Q336 687 280 653ZM445 630T478 617T539 579L490 518Q472 532 456 537T419 543Q386 543 366 517T345 433Q345 324 418 324Q460 324 498 353L542 289Q486 236 409
236Q327 236 279 287T231 433Q231 493 254 537T317 606T408 630Q445 630 478 617Z" />
<glyph unicode="&#xaa;" glyph-name="ordfeminine" horiz-adv-x="500" d="M286 539Q286 570 272 581T219 593Q200 593 170 588T109 572L77 662Q117 677 160 685T241 693Q337 693 381 657T425 547V405Q425 384 431 374T452 359L423 267Q384 269 359 282T315 322Q293
292 260 278T187 264Q123 264 85 299T47 391Q47 458 99 493T249 528H286V539ZM265 364T286 390V453H263Q191 453 191 402Q191 384 201 374T232 364Q265 364 286 390ZM461 0H52V122H461V0Z" />
<glyph unicode="&#xab;" glyph-name="guillemotleft" horiz-adv-x="628" d="M194 285L323 78L226 13L36 234V334L226 556L323 491L194 285ZM462 285L591 78L494 13L304 234V334L494 556L591 491L462 285Z" />
<glyph unicode="&#xac;" glyph-name="logicalnot" horiz-adv-x="531" d="M352 114V267H48V390H483V114H352Z" />
<glyph unicode="&#xad;" glyph-name="softhyphen" horiz-adv-x="407" d="M363 374V252H44V374H363Z" />
<glyph unicode="&#xae;" glyph-name="registered" horiz-adv-x="637" d="M396 759T459 723T557 624T593 484Q593 408 558 346T459 248T319 212Q242 212 179 247T80 345T44 484Q44 561 80 624T179 723T319 759Q396 759 459 723ZM376 279T420 305T490 379T515 484Q515
543 490 590T421 665T319 692Q262 692 218 665T148 590T122 484Q122 426 147 379T217 306T319 279Q376 279 420 305ZM432 519T417 499T374 469L448 352H366L308 454H286V352H215V634H299Q432 634 432 546Q432 519 417 499ZM316 512Q359 512 359 548Q359 580 314
580H286V512H316Z" />
<glyph unicode="&#xaf;" glyph-name="overscore" horiz-adv-x="365" d="M30 765H335V655H30V765Z" />
<glyph unicode="&#xb0;" glyph-name="degree" horiz-adv-x="521" d="M173 369T132 390T65 450T39 541Q39 592 64 630T131 689T218 710Q263 710 304 690T370 631T396 541Q396 489 371 450T304 390T218 369Q173 369 132 390ZM249 462T268 483T287 541Q287 577 269
598T218 619Q186 619 167 598T148 541Q148 505 167 484T218 462Q249 462 268 483Z" />
<glyph unicode="&#xb1;" glyph-name="plusminus" horiz-adv-x="531" d="M470 123V1H48V123H470ZM482 465V343H331V187H200V343H48V465H200V621H331V465H482Z" />
<glyph unicode="&#xb2;" glyph-name="twosuperior" horiz-adv-x="400" d="M270 752T311 716T353 626Q353 595 340 567T290 502T186 410H363L351 321H53V403Q130 473 166 509T217 570T232 616Q232 638 219 651T182 664Q159 664 141 654T104 622L36 675Q64 711 104
731T194 752Q270 752 311 716Z" />
<glyph unicode="&#xb3;" glyph-name="threesuperior" horiz-adv-x="400" d="M271 752T311 723T352 646Q352 567 259 543Q308 540 337 514T367 438Q367 403 347 374T287 327T192 309Q90 309 33 376L98 438Q117 417 137 408T183 399Q211 399 228 411T245 449Q245
476 229 488T178 501H141L154 581H180Q208 581 222 592T237 624Q237 644 223 654T184 665Q138 665 100 630L41 692Q106 752 198 752Q271 752 311 723Z" />
<glyph unicode="&#xb4;" glyph-name="acute" horiz-adv-x="340" d="M74 622L30 703L248 835L310 717L74 622Z" />
<glyph unicode="&#xb5;" glyph-name="uni00B5" horiz-adv-x="582" d="M383 3T379 20T369 68Q323 -8 261 -8Q200 -8 172 34Q193 -4 202 -34T212 -113V-205L62 -220V531H220V167Q220 106 270 106Q293 106 315 121T355 170V531H513V182Q513 84 537 0L392 -17Q383 3 379 20Z" />
<glyph unicode="&#xb6;" glyph-name="paragraph" horiz-adv-x="788" d="M672 -205L534 -223V583H442V-205L304 -223V263Q187 266 126 324T65 478Q65 580 136 638T334 693H672V-205Z" />
<glyph unicode="&#xb7;" glyph-name="middot" horiz-adv-x="240" d="M157 398T183 372T210 308Q210 271 184 245T120 218Q83 218 57 244T30 308Q30 345 56 371T120 398Q157 398 183 372Z" />
<glyph unicode="&#xb8;" glyph-name="cedilla" horiz-adv-x="321" d="M240 -54T265 -79T291 -147Q291 -198 251 -230T142 -262Q108 -262 79 -254T30 -232L66 -159Q100 -176 130 -176Q177 -176 177 -146Q177 -128 155 -120T85 -112L100 16H187V-48Q240 -54 265 -79Z" />
<glyph unicode="&#xb9;" glyph-name="onesuperior" horiz-adv-x="400" d="M183 321V632L92 575L39 653L193 742H300V321H183Z" />
<glyph unicode="&#xba;" glyph-name="ordmasculine" horiz-adv-x="500" d="M350 693T407 637T464 478Q464 380 407 322T251 264Q151 264 94 320T37 479Q37 577 94 635T250 693Q350 693 407 637ZM216 591T200 564T183 479Q183 419 199 393T251 366Q285 366 301
393T318 478Q318 538 302 564T250 591Q216 591 200 564ZM461 123V0H39V123H461Z" />
<glyph unicode="&#xbb;" glyph-name="guillemotright" horiz-adv-x="625" d="M323 234L134 13L36 78L165 285L36 491L134 556L323 334V234ZM588 234L399 13L301 78L430 285L301 491L399 556L588 334V234Z" />
<glyph unicode="&#xbc;" glyph-name="onequarter" horiz-adv-x="969" d="M184 272V583L92 526L40 604L193 694H300V272H184ZM325 -85L233 -40L644 759L736 714L325 -85ZM896 84V0H784V84H593V162L714 431L813 395L713 170H785L806 265H896V170H942V84H896Z" />
<glyph unicode="&#xbd;" glyph-name="onehalf" horiz-adv-x="969" d="M184 272V583L92 526L40 604L193 694H300V272H184ZM325 -85L233 -40L644 759L736 714L325 -85ZM838 431T879 395T921 305Q921 274 908 246T858 181T754 89H931L919 0H621V82Q698 152 734 188T785
249T800 295Q800 317 787 330T750 343Q727 343 709 333T672 301L604 354Q632 390 672 410T762 431Q838 431 879 395Z" />
<glyph unicode="&#xbe;" glyph-name="threequarters" horiz-adv-x="969" d="M271 703T311 674T352 597Q352 559 329 533T259 494Q309 491 338 465T368 389Q368 354 348 325T287 278T192 260Q91 260 33 328L98 390Q117 369 137 360T184 350Q211 350 228 362T245
400Q245 427 229 439T179 452H141L154 532H180Q208 532 222 543T237 576Q237 596 223 606T184 617Q140 617 100 582L41 643Q107 703 198 703Q271 703 311 674ZM325 -85L233 -40L644 759L736 714L325 -85ZM896 84V0H784V84H593V162L714 431L813 395L713 170H785L806
265H896V170H942V84H896Z" />
<glyph unicode="&#xbf;" glyph-name="questiondown" horiz-adv-x="481" d="M227 329T201 355T174 419Q174 456 200 482T265 509Q302 509 328 483T355 419Q355 382 329 356T265 329Q227 329 201 355ZM163 -222T114 -200T39 -139T14 -55Q14 -14 29 15T64 63T117
104Q156 130 175 151T194 206V236H338V200Q338 153 324 122T289 72T238 32Q208 11 194 -4T180 -41Q180 -68 198 -83T249 -98Q313 -98 367 -37L467 -115Q378 -222 233 -222Q163 -222 114 -200Z" />
<glyph unicode="&#xc0;" glyph-name="Agrave" horiz-adv-x="590" d="M192 149L157 0H-13L196 693H395L604 0H430L395 149H192ZM293 574L220 268H366L293 574ZM389 751L149 838L209 956L429 831L389 751Z" />
<glyph unicode="&#xc1;" glyph-name="Aacute" horiz-adv-x="590" d="M192 149L157 0H-13L196 693H395L604 0H430L395 149H192ZM293 574L220 268H366L293 574ZM193 751L153 831L372 956L433 838L193 751Z" />
<glyph unicode="&#xc2;" glyph-name="Acircumflex" horiz-adv-x="590" d="M192 149L157 0H-13L196 693H395L604 0H430L395 149H192ZM293 574L220 268H366L293 574ZM163 755L106 820L248 949H344L485 820L429 755L296 839L163 755Z" />
<glyph unicode="&#xc3;" glyph-name="Atilde" horiz-adv-x="590" d="M192 149L157 0H-13L196 693H395L604 0H430L395 149H192ZM293 574L220 268H366L293 574ZM331 761T315 768T278 789Q266 798 257 802T239 806Q222 806 211 796T186 762L107 800Q127 852 160 885T237
918Q260 918 276 911T313 891Q336 873 352 873Q368 873 379 883T405 917L484 878Q463 825 430 793T356 761Q331 761 315 768Z" />
<glyph unicode="&#xc4;" glyph-name="Adieresis" horiz-adv-x="590" d="M192 149L157 0H-13L196 693H395L604 0H430L395 149H192ZM293 574L220 268H366L293 574ZM214 925T237 902T260 847Q260 813 237 790T180 767Q146 767 122 790T98 847Q98 879 122 902T180
925Q214 925 237 902ZM445 925T468 902T492 847Q492 813 469 790T411 767Q377 767 354 790T330 847Q330 879 353 902T411 925Q445 925 468 902Z" />
<glyph unicode="&#xc5;" glyph-name="Aring" horiz-adv-x="590" d="M192 149L157 0H-13L196 693H395L604 0H430L395 149H192ZM293 574L220 268H366L293 574ZM359 993T397 955T435 862Q435 808 397 770T296 731Q234 731 196 769T157 862Q157 917 195 955T296 993Q359
993 397 955ZM275 912T263 900T251 862Q251 838 263 826T296 813Q317 813 329 825T341 862Q341 887 329 899T296 912Q275 912 263 900Z" />
<glyph unicode="&#xc6;" glyph-name="AE" horiz-adv-x="845" d="M812 0H444L418 149H203L153 0H-23L249 693H775L758 576H488L522 408H766V293H546L582 118H812V0ZM345 573L243 268H398L345 573Z" />
<glyph unicode="&#xc7;" glyph-name="Ccedilla" horiz-adv-x="575" d="M534 39T487 15T384 -15V-48Q436 -54 461 -79T487 -147Q487 -198 447 -230T338 -262Q305 -262 276 -254T226 -232L262 -159Q296 -176 326 -176Q373 -176 373 -146Q373 -128 351 -120T281 -112L293
-13Q172 5 103 98T33 348Q33 461 73 543T184 667T345 710Q413 710 463 691T559 634L479 539Q421 589 355 589Q286 589 246 530T205 348Q205 227 245 169T358 110Q395 110 425 125T493 168L567 72Q534 39 487 15Z" />
<glyph unicode="&#xc8;" glyph-name="Egrave" horiz-adv-x="526" d="M229 576V410H442V295H229V118H490V0H65V693H490L473 576H229ZM372 751L132 838L192 956L412 831L372 751Z" />
<glyph unicode="&#xc9;" glyph-name="Eacute" horiz-adv-x="526" d="M229 576V410H442V295H229V118H490V0H65V693H490L473 576H229ZM176 751L136 831L355 956L416 838L176 751Z" />
<glyph unicode="&#xca;" glyph-name="Ecircumflex" horiz-adv-x="526" d="M229 576V410H442V295H229V118H490V0H65V693H490L473 576H229ZM146 755L89 820L231 949H327L468 820L412 755L279 839L146 755Z" />
<glyph unicode="&#xcb;" glyph-name="Edieresis" horiz-adv-x="526" d="M229 576V410H442V295H229V118H490V0H65V693H490L473 576H229ZM197 925T220 902T243 847Q243 813 220 790T163 767Q129 767 105 790T81 847Q81 879 105 902T163 925Q197 925 220 902ZM428
925T451 902T475 847Q475 813 452 790T394 767Q360 767 337 790T313 847Q313 879 336 902T394 925Q428 925 451 902Z" />
<glyph unicode="&#xcc;" glyph-name="Igrave" horiz-adv-x="294" d="M65 0V693H229V0H65ZM496 751L256 838L316 956L536 831L496 751Z" />
<glyph unicode="&#xcd;" glyph-name="Iacute" horiz-adv-x="294" d="M65 0V693H229V0H65ZM301 751L261 831L480 956L541 838L301 751Z" />
<glyph unicode="&#xce;" glyph-name="Icircumflex" horiz-adv-x="294" d="M65 0V693H229V0H65ZM270 755L213 820L355 949H451L592 820L536 755L403 839L270 755Z" />
<glyph unicode="&#xcf;" glyph-name="Idieresis" horiz-adv-x="294" d="M65 0V693H229V0H65ZM322 925T345 902T368 847Q368 813 345 790T288 767Q254 767 230 790T206 847Q206 879 230 902T288 925Q322 925 345 902ZM553 925T576 902T600 847Q600 813 577 790T519
767Q485 767 462 790T438 847Q438 879 461 902T519 925Q553 925 576 902Z" />
<glyph unicode="&#xd0;" glyph-name="Eth" horiz-adv-x="665" d="M435 694T533 620T632 350Q632 157 536 79T287 0H79V304H14V402H79V694H272Q435 694 533 620ZM378 119T420 169T462 350Q462 439 442 488T385 556T295 575H243V402H377V304H243V119H297Q378 119 420 169Z" />
<glyph unicode="&#xd1;" glyph-name="Ntilde" horiz-adv-x="663" d="M390 0L190 537Q200 458 205 398T211 254V0H65V693H269L474 155Q452 292 452 413V693H599V0H390ZM372 761T356 768T319 789Q307 798 298 802T280 806Q263 806 252 796T227 762L148 800Q168 852
201 885T278 918Q301 918 317 911T354 891Q377 873 393 873Q409 873 420 883T446 917L525 878Q504 825 471 793T397 761Q372 761 356 768Z" />
<glyph unicode="&#xd2;" glyph-name="Ograve" horiz-adv-x="691" d="M493 710T575 615T658 347Q658 234 621 152T513 27T345 -17Q248 -17 178 26T71 150T33 347Q33 459 70 541T178 666T345 710Q493 710 575 615ZM274 590T240 533T205 347Q205 219 240 161T345
103Q417 103 451 160T486 347Q486 476 451 533T345 590Q274 590 240 533ZM440 751L200 838L260 956L480 831L440 751Z" />
<glyph unicode="&#xd3;" glyph-name="Oacute" horiz-adv-x="691" d="M493 710T575 615T658 347Q658 234 621 152T513 27T345 -17Q248 -17 178 26T71 150T33 347Q33 459 70 541T178 666T345 710Q493 710 575 615ZM274 590T240 533T205 347Q205 219 240 161T345
103Q417 103 451 160T486 347Q486 476 451 533T345 590Q274 590 240 533ZM244 751L204 831L423 956L484 838L244 751Z" />
<glyph unicode="&#xd4;" glyph-name="Ocircumflex" horiz-adv-x="691" d="M493 710T575 615T658 347Q658 234 621 152T513 27T345 -17Q248 -17 178 26T71 150T33 347Q33 459 70 541T178 666T345 710Q493 710 575 615ZM274 590T240 533T205 347Q205 219 240 161T345
103Q417 103 451 160T486 347Q486 476 451 533T345 590Q274 590 240 533ZM214 755L157 820L299 949H395L536 820L480 755L347 839L214 755Z" />
<glyph unicode="&#xd5;" glyph-name="Otilde" horiz-adv-x="691" d="M493 710T575 615T658 347Q658 234 621 152T513 27T345 -17Q248 -17 178 26T71 150T33 347Q33 459 70 541T178 666T345 710Q493 710 575 615ZM274 590T240 533T205 347Q205 219 240 161T345
103Q417 103 451 160T486 347Q486 476 451 533T345 590Q274 590 240 533ZM382 761T366 768T329 789Q317 798 308 802T290 806Q273 806 262 796T237 762L158 800Q178 852 211 885T288 918Q311 918 327 911T364 891Q387 873 403 873Q419 873 430 883T456 917L535
878Q514 825 481 793T407 761Q382 761 366 768Z" />
<glyph unicode="&#xd6;" glyph-name="Odieresis" horiz-adv-x="691" d="M493 710T575 615T658 347Q658 234 621 152T513 27T345 -17Q248 -17 178 26T71 150T33 347Q33 459 70 541T178 666T345 710Q493 710 575 615ZM274 590T240 533T205 347Q205 219 240 161T345
103Q417 103 451 160T486 347Q486 476 451 533T345 590Q274 590 240 533ZM265 925T288 902T311 847Q311 813 288 790T231 767Q197 767 173 790T149 847Q149 879 173 902T231 925Q265 925 288 902ZM496 925T519 902T543 847Q543 813 520 790T462 767Q428 767 405
790T381 847Q381 879 404 902T462 925Q496 925 519 902Z" />
<glyph unicode="&#xd7;" glyph-name="multiply" horiz-adv-x="519" d="M345 306L463 190L376 103L259 221L143 103L56 190L174 306L56 423L143 510L259 392L376 510L463 423L345 306Z" />
<glyph unicode="&#xd8;" glyph-name="Oslash" horiz-adv-x="691" d="M584 625T621 543T658 347Q658 234 621 152T513 27T345 -17Q320 -17 296 -14L260 -134L136 -102L176 27Q107 70 70 151T33 347Q33 459 70 541T178 666T345 710Q371 710 394 707L432 828L555
795L514 667Q584 625 621 543ZM274 590T240 533T205 347Q205 203 243 148L375 588Q357 590 345 590Q274 590 240 533ZM417 103T451 160T486 347Q486 492 448 547L315 105Q335 103 345 103Q417 103 451 160Z" />
<glyph unicode="&#xd9;" glyph-name="Ugrave" horiz-adv-x="651" d="M596 159T566 103T474 15T325 -17Q193 -17 124 50T55 230V693H219V237Q219 170 244 138T325 105Q381 105 406 137T432 237V693H596V230Q596 159 566 103ZM418 751L178 838L238 956L458 831L418 751Z" />
<glyph unicode="&#xda;" glyph-name="Uacute" horiz-adv-x="651" d="M596 159T566 103T474 15T325 -17Q193 -17 124 50T55 230V693H219V237Q219 170 244 138T325 105Q381 105 406 137T432 237V693H596V230Q596 159 566 103ZM223 751L183 831L402 956L463 838L223 751Z" />
<glyph unicode="&#xdb;" glyph-name="Ucircumflex" horiz-adv-x="651" d="M596 159T566 103T474 15T325 -17Q193 -17 124 50T55 230V693H219V237Q219 170 244 138T325 105Q381 105 406 137T432 237V693H596V230Q596 159 566 103ZM192 755L135 820L277 949H373L514
820L458 755L325 839L192 755Z" />
<glyph unicode="&#xdc;" glyph-name="Udieresis" horiz-adv-x="651" d="M596 159T566 103T474 15T325 -17Q193 -17 124 50T55 230V693H219V237Q219 170 244 138T325 105Q381 105 406 137T432 237V693H596V230Q596 159 566 103ZM244 925T267 902T290 847Q290 813
267 790T210 767Q176 767 152 790T128 847Q128 879 152 902T210 925Q244 925 267 902ZM475 925T498 902T522 847Q522 813 499 790T441 767Q407 767 384 790T360 847Q360 879 383 902T441 925Q475 925 498 902Z" />
<glyph unicode="&#xdd;" glyph-name="Yacute" horiz-adv-x="594" d="M379 0H215V259L-7 693H172L300 388L428 693H601L379 260V0ZM195 751L155 831L374 956L435 838L195 751Z" />
<glyph unicode="&#xde;" glyph-name="Thorn" horiz-adv-x="600" d="M426 585T502 527T578 356Q578 236 504 175T304 114H229V0H65V693H229V585H289Q426 585 502 527ZM348 233T378 261T409 356Q409 413 379 440T287 468H229V233H290Q348 233 378 261Z" />
<glyph unicode="&#xdf;" glyph-name="germandbls" horiz-adv-x="606" d="M363 759T410 739T481 683T505 604Q505 570 490 547T447 498Q425 478 415 464T404 431Q404 412 419 397T468 357Q504 332 528 310T570 251T588 166Q588 110 562 69T489 5T386 -17Q319 -17
267 10L314 117Q337 105 366 105Q394 105 409 121T425 169Q425 204 407 226T352 275Q310 307 289 333T267 405Q268 442 280 464T316 510Q336 531 346 547T356 590Q356 617 339 632T294 647Q220 647 220 538V0H62V533Q62 639 123 699T298 759Q363 759 410 739Z"
/>
<glyph unicode="&#xe0;" glyph-name="agrave" horiz-adv-x="548" d="M484 124T492 110T520 89L487 -14Q438 -10 408 7T359 62Q307 -17 199 -17Q120 -17 73 29T26 149Q26 236 90 282T275 328H329V351Q329 398 309 415T239 433Q213 433 176 426T100 405L64 509Q114
528 166 538T264 548Q378 548 431 501T484 360V154Q484 124 492 110ZM271 96T292 109T329 146V241H290Q236 241 210 222T183 163Q183 131 199 114T245 96Q271 96 292 109ZM377 622L141 717L203 835L421 703L377 622Z" />
<glyph unicode="&#xe1;" glyph-name="aacute" horiz-adv-x="548" d="M484 124T492 110T520 89L487 -14Q438 -10 408 7T359 62Q307 -17 199 -17Q120 -17 73 29T26 149Q26 236 90 282T275 328H329V351Q329 398 309 415T239 433Q213 433 176 426T100 405L64 509Q114
528 166 538T264 548Q378 548 431 501T484 360V154Q484 124 492 110ZM271 96T292 109T329 146V241H290Q236 241 210 222T183 163Q183 131 199 114T245 96Q271 96 292 109ZM165 622L121 703L339 835L401 717L165 622Z" />
<glyph unicode="&#xe2;" glyph-name="acircumflex" horiz-adv-x="548" d="M484 124T492 110T520 89L487 -14Q438 -10 408 7T359 62Q307 -17 199 -17Q120 -17 73 29T26 149Q26 236 90 282T275 328H329V351Q329 398 309 415T239 433Q213 433 176 426T100 405L64
509Q114 528 166 538T264 548Q378 548 431 501T484 360V154Q484 124 492 110ZM271 96T292 109T329 146V241H290Q236 241 210 222T183 163Q183 131 199 114T245 96Q271 96 292 109ZM222 822H319L460 685L404 620L271 712L137 620L81 685L222 822Z" />
<glyph unicode="&#xe3;" glyph-name="atilde" horiz-adv-x="548" d="M484 124T492 110T520 89L487 -14Q438 -10 408 7T359 62Q307 -17 199 -17Q120 -17 73 29T26 149Q26 236 90 282T275 328H329V351Q329 398 309 415T239 433Q213 433 176 426T100 405L64 509Q114
528 166 538T264 548Q378 548 431 501T484 360V154Q484 124 492 110ZM271 96T292 109T329 146V241H290Q236 241 210 222T183 163Q183 131 199 114T245 96Q271 96 292 109ZM307 635T291 642T254 663Q242 672 233 676T215 680Q198 680 187 670T162 636L83 674Q103
726 136 759T212 792Q236 792 252 785T289 765Q312 747 328 747Q344 747 355 757T380 791L459 752Q439 699 406 667T332 635Q307 635 291 642Z" />
<glyph unicode="&#xe4;" glyph-name="adieresis" horiz-adv-x="548" d="M484 124T492 110T520 89L487 -14Q438 -10 408 7T359 62Q307 -17 199 -17Q120 -17 73 29T26 149Q26 236 90 282T275 328H329V351Q329 398 309 415T239 433Q213 433 176 426T100 405L64 509Q114
528 166 538T264 548Q378 548 431 501T484 360V154Q484 124 492 110ZM271 96T292 109T329 146V241H290Q236 241 210 222T183 163Q183 131 199 114T245 96Q271 96 292 109ZM188 799T211 776T235 720Q235 687 212 664T154 641Q120 641 97 664T73 720Q73 753 96 776T154
799Q188 799 211 776ZM420 799T443 776T467 720Q467 687 444 664T386 641Q352 641 329 664T305 720Q305 753 328 776T386 799Q420 799 443 776Z" />
<glyph unicode="&#xe5;" glyph-name="aring" horiz-adv-x="548" d="M484 124T492 110T520 89L487 -14Q438 -10 408 7T359 62Q307 -17 199 -17Q120 -17 73 29T26 149Q26 236 90 282T275 328H329V351Q329 398 309 415T239 433Q213 433 176 426T100 405L64 509Q114
528 166 538T264 548Q378 548 431 501T484 360V154Q484 124 492 110ZM271 96T292 109T329 146V241H290Q236 241 210 222T183 163Q183 131 199 114T245 96Q271 96 292 109ZM334 867T372 829T410 736Q410 681 372 643T271 605Q208 605 170 643T132 736Q132 791 170
829T271 867Q334 867 372 829ZM250 786T238 773T226 736Q226 712 238 699T271 686Q291 686 303 699T316 736Q316 760 304 773T271 786Q250 786 238 773Z" />
<glyph unicode="&#xe6;" glyph-name="ae" horiz-adv-x="857" d="M828 243T825 219H496Q504 152 534 125T617 98Q649 98 679 109T744 145L809 57Q716 -17 602 -17Q532 -17 479 7T391 74Q327 -17 203 -17Q122 -17 74 29T26 149Q26 236 91 282T281 328H335V350Q335
396 315 414T245 432Q219 432 182 425T106 404L70 509Q120 528 172 538T270 548Q382 548 432 482Q493 548 588 548Q699 548 763 476T828 276Q828 243 825 219ZM672 321Q672 443 586 443Q545 443 523 414T496 314H672V321ZM282 96T304 112T348 160Q338 197 337 234V238H297Q244
238 219 220T193 160Q193 130 208 113T253 96Q282 96 304 112Z" />
<glyph unicode="&#xe7;" glyph-name="ccedilla" horiz-adv-x="479" d="M408 -7T324 -16V-48Q376 -54 401 -79T427 -147Q427 -198 387 -230T278 -262Q245 -262 216 -254T166 -232L202 -159Q233 -176 266 -176Q313 -176 313 -146Q313 -128 291 -120T221 -112L233
-11Q139 8 86 80T32 261Q32 345 64 410T155 511T292 548Q347 548 391 532T474 483L405 388Q357 427 305 427Q252 427 225 388T198 262Q198 178 225 143T303 108Q331 108 353 117T402 147L474 46Q408 -7 324 -16Z" />
<glyph unicode="&#xe8;" glyph-name="egrave" horiz-adv-x="554" d="M525 243T522 219H194Q201 152 231 125T314 98Q346 98 376 109T441 145L506 57Q413 -17 299 -17Q170 -17 101 59T32 263Q32 344 61 408T146 510T280 548Q395 548 460 476T525 276Q525 243 522
219ZM370 321Q368 443 284 443Q243 443 221 414T193 314H370V321ZM389 622L153 717L215 835L433 703L389 622Z" />
<glyph unicode="&#xe9;" glyph-name="eacute" horiz-adv-x="554" d="M525 243T522 219H194Q201 152 231 125T314 98Q346 98 376 109T441 145L506 57Q413 -17 299 -17Q170 -17 101 59T32 263Q32 344 61 408T146 510T280 548Q395 548 460 476T525 276Q525 243 522
219ZM370 321Q368 443 284 443Q243 443 221 414T193 314H370V321ZM177 622L133 703L351 835L413 717L177 622Z" />
<glyph unicode="&#xea;" glyph-name="ecircumflex" horiz-adv-x="554" d="M525 243T522 219H194Q201 152 231 125T314 98Q346 98 376 109T441 145L506 57Q413 -17 299 -17Q170 -17 101 59T32 263Q32 344 61 408T146 510T280 548Q395 548 460 476T525 276Q525 243
522 219ZM370 321Q368 443 284 443Q243 443 221 414T193 314H370V321ZM234 822H331L472 685L416 620L283 712L149 620L93 685L234 822Z" />
<glyph unicode="&#xeb;" glyph-name="edieresis" horiz-adv-x="554" d="M525 243T522 219H194Q201 152 231 125T314 98Q346 98 376 109T441 145L506 57Q413 -17 299 -17Q170 -17 101 59T32 263Q32 344 61 408T146 510T280 548Q395 548 460 476T525 276Q525 243
522 219ZM370 321Q368 443 284 443Q243 443 221 414T193 314H370V321ZM200 799T223 776T247 720Q247 687 224 664T166 641Q132 641 109 664T85 720Q85 753 108 776T166 799Q200 799 223 776ZM432 799T455 776T479 720Q479 687 456 664T398 641Q364 641 341 664T317
720Q317 753 340 776T398 799Q432 799 455 776Z" />
<glyph unicode="&#xec;" glyph-name="igrave" horiz-adv-x="282" d="M62 0V531H220V0H62ZM503 622L267 717L329 835L547 703L503 622Z" />
<glyph unicode="&#xed;" glyph-name="iacute" horiz-adv-x="282" d="M62 0V531H220V0H62ZM291 622L247 703L465 835L527 717L291 622Z" />
<glyph unicode="&#xee;" glyph-name="icircumflex" horiz-adv-x="282" d="M62 0V531H220V0H62ZM349 822H446L587 685L531 620L398 712L264 620L208 685L349 822Z" />
<glyph unicode="&#xef;" glyph-name="idieresis" horiz-adv-x="282" d="M62 0V531H220V0H62ZM315 799T338 776T362 720Q362 687 339 664T281 641Q247 641 224 664T200 720Q200 753 223 776T281 799Q315 799 338 776ZM547 799T570 776T594 720Q594 687 571 664T513
641Q479 641 456 664T432 720Q432 753 455 776T513 799Q547 799 570 776Z" />
<glyph unicode="&#xf0;" glyph-name="eth" horiz-adv-x="579" d="M457 599T499 504T542 277Q542 194 511 127T422 22T283 -17Q211 -17 154 13T65 99T32 234Q32 301 59 357T133 446T240 479Q317 479 372 432Q358 479 335 514T270 582L215 528L116 574L172 633Q123
648 81 654L113 758Q192 745 258 721L332 798L412 727L357 670Q457 599 499 504ZM334 98T357 137T381 256L380 327Q341 369 283 369Q193 369 193 237Q193 166 217 132T285 98Q334 98 357 137Z" />
<glyph unicode="&#xf1;" glyph-name="ntilde" horiz-adv-x="577" d="M442 548T481 506T520 388V0H362V361Q362 401 350 416T312 432Q264 432 220 363V0H62V531H200L211 468Q246 508 285 528T373 548Q442 548 481 506ZM329 635T313 642T276 663Q264 672 255 676T237
680Q220 680 209 670T184 636L105 674Q125 726 158 759T234 792Q258 792 274 785T311 765Q334 747 350 747Q366 747 377 757T402 791L481 752Q461 699 428 667T354 635Q329 635 313 642Z" />
<glyph unicode="&#xf2;" glyph-name="ograve" horiz-adv-x="584" d="M414 548T483 474T552 265Q552 180 521 117T431 18T292 -17Q171 -17 102 57T32 266Q32 351 63 414T153 513T292 548Q414 548 483 474ZM244 432T220 392T196 266Q196 179 219 139T292 99Q340
99 364 139T388 265Q388 352 365 392T292 432Q244 432 220 392ZM398 622L162 717L224 835L442 703L398 622Z" />
<glyph unicode="&#xf3;" glyph-name="oacute" horiz-adv-x="584" d="M414 548T483 474T552 265Q552 180 521 117T431 18T292 -17Q171 -17 102 57T32 266Q32 351 63 414T153 513T292 548Q414 548 483 474ZM244 432T220 392T196 266Q196 179 219 139T292 99Q340
99 364 139T388 265Q388 352 365 392T292 432Q244 432 220 392ZM186 622L142 703L360 835L422 717L186 622Z" />
<glyph unicode="&#xf4;" glyph-name="ocircumflex" horiz-adv-x="584" d="M414 548T483 474T552 265Q552 180 521 117T431 18T292 -17Q171 -17 102 57T32 266Q32 351 63 414T153 513T292 548Q414 548 483 474ZM244 432T220 392T196 266Q196 179 219 139T292 99Q340
99 364 139T388 265Q388 352 365 392T292 432Q244 432 220 392ZM243 822H340L481 685L425 620L292 712L158 620L102 685L243 822Z" />
<glyph unicode="&#xf5;" glyph-name="otilde" horiz-adv-x="584" d="M414 548T483 474T552 265Q552 180 521 117T431 18T292 -17Q171 -17 102 57T32 266Q32 351 63 414T153 513T292 548Q414 548 483 474ZM244 432T220 392T196 266Q196 179 219 139T292 99Q340
99 364 139T388 265Q388 352 365 392T292 432Q244 432 220 392ZM328 635T312 642T275 663Q263 672 254 676T236 680Q219 680 208 670T183 636L104 674Q124 726 157 759T233 792Q257 792 273 785T310 765Q333 747 349 747Q365 747 376 757T401 791L480 752Q460 699
427 667T353 635Q328 635 312 642Z" />
<glyph unicode="&#xf6;" glyph-name="odieresis" horiz-adv-x="584" d="M414 548T483 474T552 265Q552 180 521 117T431 18T292 -17Q171 -17 102 57T32 266Q32 351 63 414T153 513T292 548Q414 548 483 474ZM244 432T220 392T196 266Q196 179 219 139T292 99Q340
99 364 139T388 265Q388 352 365 392T292 432Q244 432 220 392ZM209 799T232 776T256 720Q256 687 233 664T175 641Q141 641 118 664T94 720Q94 753 117 776T175 799Q209 799 232 776ZM441 799T464 776T488 720Q488 687 465 664T407 641Q373 641 350 664T326 720Q326
753 349 776T407 799Q441 799 464 776Z" />
<glyph unicode="&#xf7;" glyph-name="divide" horiz-adv-x="519" d="M296 181T322 155T349 91Q349 53 323 27T259 0Q221 0 195 26T168 91Q168 128 194 154T259 181Q296 181 322 155ZM296 664T322 638T349 574Q349 536 323 510T259 483Q221 483 195 509T168 574Q168
611 194 637T259 664Q296 664 322 638ZM470 393V271H48V393H470Z" />
<glyph unicode="&#xf8;" glyph-name="oslash" horiz-adv-x="584" d="M493 476T522 414T552 265Q552 180 521 117T431 18T292 -17Q279 -17 259 -15L221 -135L106 -101L145 21Q90 56 61 118T32 266Q32 351 63 414T153 513T292 548Q315 548 326 547L364 667L480 633L439
510Q493 476 522 414ZM243 432T217 391T190 266Q190 175 211 138L309 431Q303 432 292 432Q243 432 217 391ZM341 99T367 140T394 265Q394 354 374 391L372 388L276 100L292 99Q341 99 367 140Z" />
<glyph unicode="&#xf9;" glyph-name="ugrave" horiz-adv-x="572" d="M373 0L366 67Q308 -17 205 -17Q132 -17 95 27T57 150V531H215V170Q215 131 227 116T266 100Q316 100 352 162V531H510V0H373ZM390 622L154 717L216 835L434 703L390 622Z" />
<glyph unicode="&#xfa;" glyph-name="uacute" horiz-adv-x="572" d="M373 0L366 67Q308 -17 205 -17Q132 -17 95 27T57 150V531H215V170Q215 131 227 116T266 100Q316 100 352 162V531H510V0H373ZM178 622L134 703L352 835L414 717L178 622Z" />
<glyph unicode="&#xfb;" glyph-name="ucircumflex" horiz-adv-x="572" d="M373 0L366 67Q308 -17 205 -17Q132 -17 95 27T57 150V531H215V170Q215 131 227 116T266 100Q316 100 352 162V531H510V0H373ZM235 822H332L473 685L417 620L284 712L150 620L94 685L235 822Z" />
<glyph unicode="&#xfc;" glyph-name="udieresis" horiz-adv-x="572" d="M373 0L366 67Q308 -17 205 -17Q132 -17 95 27T57 150V531H215V170Q215 131 227 116T266 100Q316 100 352 162V531H510V0H373ZM201 799T224 776T248 720Q248 687 225 664T167 641Q133 641
110 664T86 720Q86 753 109 776T167 799Q201 799 224 776ZM433 799T456 776T480 720Q480 687 457 664T399 641Q365 641 342 664T318 720Q318 753 341 776T399 799Q433 799 456 776Z" />
<glyph unicode="&#xfd;" glyph-name="yacute" horiz-adv-x="518" d="M323 -104T251 -159T56 -222L39 -111Q115 -101 151 -77T210 0H156L-6 531H162L257 101L361 531H524L355 -1Q323 -104 251 -159ZM153 622L109 703L327 835L389 717L153 622Z" />
<glyph unicode="&#xfe;" glyph-name="thorn" horiz-adv-x="597" d="M461 548T510 475T560 267Q560 185 535 121T461 20T349 -17Q269 -17 220 39V-204L62 -222V742L220 759V481Q250 516 286 532T359 548Q461 548 510 475ZM396 99T396 265Q396 359 375 395T309 432Q284
432 261 416T220 370V146Q252 99 301 99Q396 99 396 265Z" />
<glyph unicode="&#xff;" glyph-name="ydieresis" horiz-adv-x="518" d="M323 -104T251 -159T56 -222L39 -111Q115 -101 151 -77T210 0H156L-6 531H162L257 101L361 531H524L355 -1Q323 -104 251 -159ZM176 799T199 776T223 720Q223 687 200 664T142 641Q108 641
85 664T61 720Q61 753 84 776T142 799Q176 799 199 776ZM408 799T431 776T455 720Q455 687 432 664T374 641Q340 641 317 664T293 720Q293 753 316 776T374 799Q408 799 431 776Z" />
<glyph unicode="&#x2013;" glyph-name="endash" horiz-adv-x="520" d="M499 374V252H21V374H499Z" />
<glyph unicode="&#x2014;" glyph-name="emdash" horiz-adv-x="796" d="M775 374V252H21V374H775Z" />
<glyph unicode="&#x2018;" glyph-name="quoteleft" horiz-adv-x="243" d="M78 461T54 484T30 542Q30 561 36 581T59 635L123 766H204L162 610Q199 584 199 541Q199 507 175 484T114 461Q78 461 54 484Z" />
<glyph unicode="&#x2019;" glyph-name="quoteright" horiz-adv-x="243" d="M157 765T181 742T205 684Q205 665 199 645T176 591L112 460H31L73 616Q36 642 36 685Q36 719 60 742T121 765Q157 765 181 742Z" />
<glyph unicode="&#x201a;" glyph-name="quotesinglbase" horiz-adv-x="243" d="M157 142T181 119T205 61Q205 42 199 22T176 -32L112 -163H31L73 -7Q36 19 36 62Q36 96 60 119T121 142Q157 142 181 119Z" />
<glyph unicode="&#x201c;" glyph-name="quotedblleft" horiz-adv-x="448" d="M79 461T55 484T31 542Q31 562 37 582T60 635L123 767H204L163 610Q199 584 199 541Q199 507 175 484T114 461Q79 461 55 484ZM284 461T260 484T236 542Q236 561 242 581T265 635L328
767H409L368 610Q405 584 405 541Q405 507 380 484T320 461Q284 461 260 484Z" />
<glyph unicode="&#x201d;" glyph-name="quotedblright" horiz-adv-x="448" d="M157 766T181 743T205 685Q205 666 199 646T176 592L113 460H32L73 617Q36 643 36 686Q36 720 61 743T121 766Q157 766 181 743ZM362 766T386 743T410 685Q410 665 404 645T381 592L318
460H237L278 617Q242 643 242 686Q242 720 266 743T327 766Q362 766 386 743Z" />
<glyph unicode="&#x201e;" glyph-name="quotedblbase" horiz-adv-x="448" d="M157 142T181 119T205 61Q205 42 199 22T176 -32L112 -163H31L73 -7Q36 19 36 62Q36 96 60 119T121 142Q157 142 181 119ZM362 142T386 119T410 61Q410 42 404 22T381 -32L317 -163H236L278
-7Q241 19 241 62Q241 96 265 119T326 142Q362 142 386 119Z" />
<glyph unicode="&#x2022;" glyph-name="bullet" horiz-adv-x="346" d="M232 480T271 440T311 341Q311 282 272 243T173 203Q114 203 75 243T35 342Q35 401 74 440T173 480Q232 480 271 440Z" />
<glyph unicode="&#x2039;" glyph-name="guilsinglleft" horiz-adv-x="359" d="M194 285L323 78L226 13L36 234V334L226 556L323 491L194 285Z" />
<glyph unicode="&#x203a;" glyph-name="guilsinglright" horiz-adv-x="359" d="M323 234L134 13L36 78L165 285L36 491L134 556L323 334V234Z" />
</font>
</defs>
</svg>
